conanlcg
超级版主

[2011] [其他] [剧情] [BD-1080P] 铁娘子:坚固柔情/撒切尔夫人 The.Iron.Lady.2011.1080p.BluRay.x264-SECTOR7 7.64GB

-->

帖子完整标题:铁娘子:坚固柔情/撒切尔夫人 The.Iron.Lady.2011.1080p.BluRay.x264-SECTOR7 7.64GB




◎译  名 铁娘子:坚固柔情 / 撒切尔夫人 / 铁娘子 / 铁娘子撒切尔 / 铁娘子:戴卓尔夫人传(港)
◎片  名 The Iron Lady
◎年  代 2011
◎产  地 英国 / 法国
◎类  别 剧情 / 传记 / 历史
◎语  言 英语
◎上映日期 2012-01-06(英国) / 2013-03-08(中国大陆)
◎IMDb评分 6.4/10 from 96059 users
◎IMDb链接 http://www.imdb.com/title/tt1007029
◎豆瓣评分 7.6/10 from 60535 users
◎豆瓣链接 https://movie.douban.com/subject/3073158/
◎片  长 105分钟
◎导  演 菲利达·劳埃德 Phyllida Lloyd
◎编  剧 艾比·摩根 Abi Morgan
◎主  演 梅丽尔·斯特里普 Meryl Streep
      吉姆·布劳德本特 Jim Broadbent
      安东尼·海德 Anthony Head
      理查德·格兰特 Richard E. Grant
      亚历山德拉·罗奇 Alexandra Roach
      哈里·劳埃德 Harry Lloyd


◎标  签 传记 | 英国 | 政治 | 女性 | 历史 | 2011 | 奥斯卡 | 剧情

◎简  介

  耄耋之年的撒切尔夫人(梅丽尔?斯特里普 Meryl Streep 饰)罹患老年痴呆症,时常在幻觉和回忆中切换。她感觉深爱的丈夫一直在身边陪伴,其实后者早已亡故。她作为杂货店的女儿,因为出身贫寒,时常饱受世人的白眼。然而,在聆听了保守党的演讲后,她坚定了自己的政治信仰,并以优异成绩考入牛津大学,虽然在一次议员选举中落败,但是她却收获了真挚的爱情与他相伴,坚定了自己从政的人生道路。从此,她逐渐走到了保守党魁的位置。终于,保守党在选举中大胜,而她也成为了英国历史上第一位女首相,组建了自己的内阁政府。面对纷繁复杂的国际国内局势,她力主的自由市场政策也饱受非议,但是她用过人的智慧和超强的忍耐力,战胜了左辅右弼众叛亲离的局面,凭一己之力拯救了英国经济,捍卫了领土主权,被世人称作铁娘子……

◎获奖情况

  第84届奥斯卡金像奖(2012)
  最佳女主角 梅丽尔·斯特里普
  最佳化妆 J.罗伊·埃兰 / 马克·凯奥耶

  第69届金球奖(2012)
  电影类 剧情片最佳女主角 梅丽尔·斯特里普

  第25届欧洲电影奖(2012)
  观众选择奖(提名) 菲利达·劳埃德

  第77届纽约影评人协会奖(2011)
  最佳女主角 梅丽尔·斯特里普

  第17届美国评论家选择电影奖(2012)
  最佳女主角(提名) 梅丽尔·斯特里普
  最佳发型化妆(提名)

  第15届英国独立电影奖(2012)
  最佳编剧(提名) 艾比·摩根
  最佳女主角(提名) 梅丽尔·斯特里普

  第10届华盛顿影评人协会奖(2011)
  最佳女主角(提名) 梅丽尔·斯特里普

  第32届波士顿影评人协会奖(2011)
  最佳女主角(提名) 梅丽尔·斯特里普

  第24届芝加哥影评人协会奖(2011)
  最佳女主角(提名) 梅丽尔·斯特里普

  第11届凤凰城影评人协会奖(2011)
  最佳女主角(提名) 梅丽尔·斯特里普

  第20届东南影评人协会奖(2011)
  最佳女主角 梅丽尔·斯特里普

  第2届豆瓣电影鑫像奖(2012)
  鑫豆单元 最佳女演员(外语) 梅丽尔·斯特里普



Video
ID : 1
Format : AVC
Format/Info : Advanced Video Codec
Format profile : [email protected]
Format settings, CABAC : Yes
Format settings, ReFrames : 5 frames
Codec ID : V_MPEG4/ISO/AVC
Duration : 1 h 44 min
Bit rate : 8 911 kb/s
Width : 1 920 pixels
Height : 816 pixels
Display aspect ratio : 2.35:1
Frame rate mode : Constant
Frame rate : 23.976 (24000/1001) FPS
Color space : YUV
Chroma subsampling : 4:2:0
Bit depth : 8 bits
Scan type : Progressive
Bits/(Pixel*Frame) : 0.237
Stream size : 6.38 GiB (84%)
Writing library : x264 core 122 r2184 5c85e0a
Encoding settings : cabac=1 / ref=5 / deblock=1:0:0 / analyse=0x3:0x133 / me=umh / subme=8 / psy=1 / psy_rd=1.00:0.00 / mixed_ref=1 / me_range=16 / chroma_me=1 / trellis=1 / 8x8dct=1 / cqm=0 / deadzone=21,11 / fast_pskip=1 / chroma_qp_offset=-2 / threads=24 / sliced_threads=0 / nr=0 / decimate=1 / interlaced=0 / bluray_compat=0 / constrained_intra=0 / bframes=3 / b_pyramid=2 / b_adapt=1 / b_bias=0 / direct=1 / weightb=1 / open_gop=0 / weightp=2 / keyint=250 / keyint_min=23 / scenecut=40 / intra_refresh=0 / rc=2pass / mbtree=0 / bitrate=8911 / ratetol=1.0 / qcomp=0.60 / qpmin=0 / qpmax=69 / qpstep=4 / cplxblur=20.0 / qblur=0.5 / ip_ratio=1.40 / pb_ratio=1.30 / aq=1:1.00
Language : English
Default : Yes
Forced : No

Audio
ID : 2
Format : DTS
Format/Info : Digital Theater Systems
Mode : 16
Format settings, Endianness : Big
Codec ID : A_DTS
Duration : 1 h 44 min
Bit rate mode : Constant
Bit rate : 1 509 kb/s
Channel(s) : 6 channels
Channel positions : Front: L C R, Side: L R, LFE
Sampling rate : 48.0 kHz
Frame rate : 93.750 FPS (512 spf)
Bit depth : 24 bits
Compression mode : Lossy
Stream size : 1.11 GiB (14%)
Title : english
Language : English
Default : Yes
Forced : No





1 个附件 售价 大小 下载 时间

The.Iron.Lady.2011.1080p.BluRay.x264-SECTOR7.torrent 0 金币 76.88K 525 次 1月前

#1楼
发帖时间:2019-06-11 02:42:48   |   回复数:3
jokingcheung
一代宗师
谢谢分享
1月前 #2楼
911degrees
隐世仙人♂
非常感谢,谢谢分享
1月前 #3楼
liyouchai
隐世仙人♂
谢谢楼主分享资源
1月前 #4楼
游客组