conanlcg
超级版主

[2011] [欧美] [喜剧] [BD-1080P] 新天师斗僵尸/吸血夜來嚇 Fright.Night.2011.1080p.BluRay.X264-AMIABLE 7.65GB

-->

帖子完整标题:新天师斗僵尸/吸血夜來嚇 Fright.Night.2011.1080p.BluRay.X264-AMIABLE 7.65GB




◎译  名 新天师斗僵尸 / 吸血夜來嚇(港) / 吸血鬼住在隔壁
◎片  名 Fright Night
◎年  代 2011
◎产  地 美国
◎类  别 喜剧 / 恐怖
◎语  言 英语
◎上映日期 2011-08-19(美国) / 2011-09-02(英国)
◎IMDb评分 6.4/10 from 94548 users
◎IMDb链接 http://www.imdb.com/title/tt1438176
◎豆瓣评分 6.0/10 from 5832 users
◎豆瓣链接 https://movie.douban.com/subject/3735003/
◎片  长 106分钟
◎导  演 克雷格·吉勒斯佩 Craig Gillespie
◎编  剧 马蒂·诺克森 Marti Noxon
◎主  演 安东·尤金 Anton Yelchin
      伊莫琴·普茨 Imogen Poots
      柯林·法瑞尔 Colin Farrell
      克里斯托夫·梅兹-普莱瑟 Christopher Mintz-Plasse
      托妮·克莱特 Toni Collette
      大卫·田纳特 David Tennant


◎标  签 吸血鬼 | 美国 | 惊悚 | 恐怖 | 2011 | ColinFarrell | 美国电影 | DavidTennant

◎简  介

  高中生查理·布鲁斯特(安东·尤金 Anton Yelchin 饰) 和母亲生活在位于拉斯维加斯腹地的宁静社区内,他像其他同龄人一样,聊聊闲天儿,憧憬一下美丽的女同学。这一天,查理的生活出现波澜,名叫亚当的同学失踪,童年时代的好友埃德(克里斯托夫·梅兹-普莱瑟 Christopher Mintz-Plasse 饰)怀疑亚当的失踪与吸血鬼有关,于是胁迫查理一同寻找。与此同时,布鲁斯特家的隔壁搬来了一名新邻居,帅气俊朗的成年男子杰瑞(柯林·法瑞尔 Colin Farrell 饰),他迷人的气质与外表征服了查理的妈妈,但是他的真实身份似乎又与埃德调查的吸血鬼有关。阴云密布的社区,诡异事件悄然发生……
本片翻拍自1985年的同名影片。

Video
ID : 1
Format : AVC
Format/Info : Advanced Video Codec
Format profile : [email protected]
Format settings, CABAC : Yes
Format settings, ReFrames : 4 frames
Codec ID : V_MPEG4/ISO/AVC
Duration : 1 h 45 min
Bit rate : 8 828 kb/s
Width : 1 920 pixels
Height : 1 080 pixels
Display aspect ratio : 16:9
Frame rate mode : Constant
Frame rate : 23.976 (24000/1001) FPS
Color space : YUV
Chroma subsampling : 4:2:0
Bit depth : 8 bits
Scan type : Progressive
Bits/(Pixel*Frame) : 0.178
Stream size : 6.38 GiB (83%)
Writing library : x264 core 119 r2106 07efeb4
Encoding settings : cabac=1 / ref=4 / deblock=1:0:0 / analyse=0x3:0x113 / me=umh / subme=8 / psy=1 / psy_rd=1.00:0.00 / mixed_ref=1 / me_range=16 / chroma_me=1 / trellis=1 / 8x8dct=1 / cqm=0 / deadzone=21,11 / fast_pskip=1 / chroma_qp_offset=-2 / threads=12 / sliced_threads=0 / nr=0 / decimate=1 / interlaced=0 / bluray_compat=0 / constrained_intra=0 / bframes=3 / b_pyramid=2 / b_adapt=2 / b_bias=0 / direct=3 / weightb=1 / open_gop=0 / weightp=2 / keyint=240 / keyint_min=24 / scenecut=40 / intra_refresh=0 / rc_lookahead=50 / rc=2pass / mbtree=1 / bitrate=8828 / ratetol=1.0 / qcomp=0.60 / qpmin=0 / qpmax=69 / qpstep=4 / cplxblur=20.0 / qblur=0.5 / ip_ratio=1.40 / aq=1:1.00
Language : English
Default : Yes
Forced : No

Audio
ID : 2
Format : DTS
Format/Info : Digital Theater Systems
Mode : 16
Format settings, Endianness : Big
Codec ID : A_DTS
Duration : 1 h 45 min
Bit rate mode : Constant
Bit rate : 1 509 kb/s
Channel(s) : 6 channels
Channel positions : Front: L C R, Side: L R, LFE
Sampling rate : 48.0 kHz
Frame rate : 93.750 FPS (512 spf)
Bit depth : 24 bits
Compression mode : Lossy
Stream size : 1.12 GiB (15%)
Language : English
Default : Yes
Forced : No

Text
ID : 3
Format : UTF-8
Codec ID : S_TEXT/UTF8
Codec ID/Info : UTF-8 Plain Text
Language : English
Default : No
Forced : No

Menu
00:00:00.000 : en:00:00:00.000
00:03:18.824 : en:00:03:18.824
00:08:09.531 : en:00:08:09.531
00:13:27.682 : en:00:13:27.682
00:18:02.790 : en:00:18:02.790
00:22:20.130 : en:00:22:20.130
00:29:50.789 : en:00:29:50.789
00:33:50.862 : en:00:33:50.862
00:40:25.757 : en:00:40:25.757
00:45:05.202 : en:00:45:05.202
00:52:02.786 : en:00:52:02.786
00:58:06.358 : en:00:58:06.358
01:04:17.645 : en:01:04:17.645
01:09:29.624 : en:01:09:29.624
01:16:26.332 : en:01:16:26.332
01:19:17.670 : en:01:19:17.670
01:24:27.229 : en:01:24:27.229
01:30:26.796 : en:01:30:26.796
01:36:37.333 : en:01:36:37.333
01:38:21.395 : en:01:38:21.395





1 个附件 售价 大小 下载 时间

Fright.Night.2011.1080p.BluRay.X264-AMIABLE.torrent 0 金币 77.03K 539 次 1月前

#1楼
发帖时间:2019-06-11 03:02:48   |   回复数:3
911degrees
隐世仙人♂
非常感谢,谢谢分享
1月前 #2楼
liyouchai
隐世仙人♂
谢谢楼主分享资源
1月前 #3楼
feung18
武林高手
謝謝分享!辛苦了感恩!
1月前 #4楼
游客组