conanlcg
超级版主

[2010] [欧美] [喜剧] [BD-1080P] 侦探拍档/拍档侦探 Cop.Out.2010.1080p.BluRay.x264.DTS-FGT 11.25GB

-->

帖子完整标题:侦探拍档/拍档侦探 Cop.Out.2010.1080p.BluRay.x264.DTS-FGT 11.25GB




◎译  名 侦探拍档 / 拍档侦探 / 波丽士很忙
◎片  名 Cop Out
◎年  代 2010
◎产  地 美国
◎类  别 喜剧 / 动作 / 犯罪
◎语  言 英语
◎上映日期 2010-02-26
◎IMDb评分 5.6/10 from 81657 users
◎IMDb链接 http://www.imdb.com/title/tt1385867
◎豆瓣评分 6.2/10 from 7557 users
◎豆瓣链接 https://movie.douban.com/subject/3569954/
◎片  长 107 分钟
◎导  演 Kevin Smith
◎编  剧 Robb Cullen / Mark Cullen
◎主  演 Bruce Willis
      Tracy Morgan
      Juan Carlos Hernández
      Seann William Scott
      Cory Fernandez


◎标  签 喜剧 | 美国 | BruceWillis | 动作 | 美国电影 | 2010 | 警匪 | KevinSmith

◎简  介

  纽约警局老干探吉米(布鲁斯?威利斯 Bruce Willis 饰)笃信沉默是金,办案一丝不苟。他有个黑人拍档保罗(崔西?摩根 Tracy Morgan 饰)刚升为探员,自以为奥巴马做了美国总统,腰杆子就硬了。不但对小毛贼颐指气使,而且对老干探也不那么尊敬。因为一张1952年的珍贵棒球卡盗窃案,吉米和保罗联手出击。不过,这次的麻烦似乎没那么容易摆平。在调查中,一连串案件浮出水面,包括墨西哥美女绑架案、黑帮分子毒品交易案等等。这对搭档其实没有经过什么大风大浪,所以这次如临大敌。而且,他们还都出现了后院起火的症状:吉米莫名其妙搞丢了女儿出嫁举办婚礼的一大笔钱,而保罗虽然像只呆头鹅,却被妻子怀疑有出轨劣迹。这种事令两人非常闹心。他们不得不一边办案,一边苦口婆心地对家人解释自己的清白,这种两头忙的窘境快把他们逼疯了……

Video
ID : 1
Format : AVC
Format/Info : Advanced Video Codec
Format profile : [email protected]
Format settings : CABAC / 5 Ref Frames
Format settings, CABAC : Yes
Format settings, ReFrames : 5 frames
Codec ID : V_MPEG4/ISO/AVC
Duration : 1 h 47 min
Bit rate : 13.5 Mb/s
Width : 1 920 pixels
Height : 800 pixels
Display aspect ratio : 2.40:1
Frame rate mode : Constant
Frame rate : 23.976 FPS
Color space : YUV
Chroma subsampling : 4:2:0
Bit depth : 8 bits
Scan type : Progressive
Bits/(Pixel*Frame) : 0.367
Stream size : 9.89 GiB (88%)
Writing library : x264 core 98 r1649 20cbe10
Encoding settings : cabac=1 / ref=5 / deblock=1:-3:-3 / analyse=0x3:0x113 / me=umh / subme=10 / psy=1 / psy_rd=1.00:0.00 / mixed_ref=1 / me_range=24 / chroma_me=1 / trellis=2 / 8x8dct=1 / cqm=0 / deadzone=21,11 / fast_pskip=1 / chroma_qp_offset=-2 / threads=6 / sliced_threads=0 / nr=0 / decimate=0 / interlaced=0 / constrained_intra=0 / bframes=11 / b_pyramid=2 / b_adapt=2 / b_bias=2 / direct=3 / weightb=1 / weightp=2 / keyint=250 / keyint_min=25 / scenecut=40 / intra_refresh=0 / rc_lookahead=40 / rc=2pass / mbtree=0 / bitrate=13500 / ratetol=1.0 / qcomp=0.60 / qpmin=10 / qpmax=51 / qpstep=4 / cplxblur=20.0 / qblur=0.5 / vbv_maxrate=50000 / vbv_bufsize=50000 / ip_ratio=1.40 / pb_ratio=1.30 / aq=2:1.00 / nal_hrd=none
Language : English
Default : Yes
Forced : No

Audio
ID : 2
Format : DTS
Format/Info : Digital Theater Systems
Codec ID : A_DTS
Duration : 1 h 47 min
Bit rate mode : Constant
Bit rate : 1 509 kb/s
Channel(s) : 6 channels
Channel layout : C L R Ls Rs LFE
Sampling rate : 48.0 kHz
Frame rate : 93.750 FPS (512 SPF)
Bit depth : 24 bits
Compression mode : Lossy
Stream size : 1.13 GiB (10%)
Language : English
Default : Yes
Forced : No

Text
ID : 3
Format : UTF-8
Codec ID : S_TEXT/UTF8
Codec ID/Info : UTF-8 Plain Text
Title : SDH
Language : English
Default : No
Forced : No

Menu
00:00:00.000 : en:Interrogatory Homage
00:06:33.643 : en:Police Pursuit
00:10:36.635 : en:Phone Vex
00:14:38.919 : en:Confessions
00:17:01.395 : en:Worst Bad Guy
00:22:19.713 : en:No Need to Be Jealous
00:25:44.417 : en:Crime Victim
00:29:43.114 : en:Beach Watch
00:33:50.111 : en:Not On the Zebrawood
00:36:54.795 : en:Back Seat Driver
00:40:41.188 : en:Police Brutality
00:43:01.453 : en:Playing \"What If\'s\"
00:46:49.848 : en:Angry Young Man
00:49:57.619 : en:Grand Theft Auto
00:55:25.864 : en:Car\'s Secret
01:00:29.500 : en:Put the Bear Down
01:04:23.693 : en:You Should Know Better
01:07:48.355 : en:Shower Runoff
01:14:10.654 : en:Full of Love
01:17:54.961 : en:Candid Camera
01:21:38.268 : en:Hostage Situation
01:26:21.467 : en:Under Fire
01:29:27.778 : en:On Three
01:34:02.344 : en:Head Shot
01:37:32.971 : en:Solo... With Help
01:40:43.370 : en:End Credits




#1楼
发帖时间:2019-06-12 12:35:27   |   回复数:2
911degrees
隐世仙人♂
非常感谢,谢谢分享
2月前 #2楼
liyouchai
隐世仙人♂
谢谢楼主分享资源
2月前 #3楼
游客组