conanlcg
超级版主

[2011] [欧美] [剧情] [BD-1080P] 青少年/中女翻叮日记 Young.Adult.2011.1080p.BluRay.x264-SPARKS 6.55GB

-->

帖子完整标题:青少年/中女翻叮日记 Young.Adult.2011.1080p.BluRay.x264-SPARKS 6.55GB




◎译  名 青少年 / 中女翻叮日记(港) / 半熟男女(台) / 老小孩 / 脱线女王 / 装嫩
◎片  名 Young Adult
◎年  代 2011
◎产  地 美国
◎类  别 剧情 / 喜剧
◎语  言 英语
◎上映日期 2011-12-09(美国)
◎IMDb评分 6.3/10 from 74079 users
◎IMDb链接 http://www.imdb.com/title/tt1625346
◎豆瓣评分 6.8/10 from 11305 users
◎豆瓣链接 https://movie.douban.com/subject/4728881/
◎片  长 94分钟
◎导  演 贾森·雷特曼 Jason Reitman
◎编  剧 迪亚波罗·科蒂 Diablo Cody
◎主  演 查理兹·塞隆 Charlize Theron
      帕特里克·威尔森 Patrick Wilson
      科莱特.沃夫 Collette Wolfe
      伊莉莎白·里瑟 Elizabeth Reaser
      路易莎·克劳瑟 Louisa Krause
      帕顿·奥斯瓦尔特 Patton Oswalt


◎标  签 美国 | 剧情 | 成长 | 喜剧 | 青春 | 女性 | Charlize_Theron | 人生

◎简  介

  尽管自己并不承认,但麦维斯(查理兹·塞隆 Charlize Theron 饰)就是一个标标准准的大龄剩女。她独居,没有朋友,吃垃圾食品,写垃圾小说,更可悲的是,她的小说卖的并不好。某一天,她收到了喜当爹的前男友巴迪(帕特里克·威尔森 Patrick Wilson 饰)的邮件,却错误的认为这是巴迪发给她的求偶信号。麦维斯振奋不已,决定改头换面,重返学生时代住过的水星镇,拯救她深陷婚姻漩涡的前男友。
在水星镇,她遇见了曾经嘲笑过的胖子马特(帕顿·奥斯瓦尔特 Patton Oswalt 饰),马特让她赶紧打消挖墙脚的念头,因为巴迪的生活其实非常幸福美满,他的妻子也是一个非常有魅力的家庭主妇。麦维斯当然不相信,无奈现实狠狠的甩了她一个耳光,在旧日同学面前出尽了洋相的麦维斯猛然醒悟,巴迪快乐的生活让她充满嫉妒,但自己的生活又何尝不是他人眼中“最好的生活”。一夜之间,麦维斯终于从一个“青少年”变成了一个真正的“成年人”。

◎获奖情况

  第69届金球奖(2012)
  电影类 音乐/喜剧片最佳女主角(提名) 查理兹·塞隆

  第17届美国评论家选择电影奖(2012)
  最佳女主角(提名) 查理兹·塞隆
  最佳男配角(提名) 帕顿·奥斯瓦尔特
  最佳原创剧本(提名) 迪亚波罗·科蒂

  第24届芝加哥影评人协会奖(2011)
  最佳男配角(提名) 帕顿·奥斯瓦尔特



Video
ID : 1
Format : AVC
Format/Info : Advanced Video Codec
Format profile : [email protected]
Format settings, CABAC : Yes
Format settings, ReFrames : 4 frames
Codec ID : V_MPEG4/ISO/AVC
Duration : 1 h 33 min
Bit rate : 8 505 kb/s
Width : 1 920 pixels
Height : 1 080 pixels
Display aspect ratio : 16:9
Frame rate mode : Constant
Frame rate : 23.976 (24000/1001) FPS
Color space : YUV
Chroma subsampling : 4:2:0
Bit depth : 8 bits
Scan type : Progressive
Bits/(Pixel*Frame) : 0.171
Stream size : 5.43 GiB (83%)
Writing library : x264 core 120 r2146 bcd41db
Encoding settings : cabac=1 / ref=4 / deblock=1:0:0 / analyse=0x3:0x113 / me=umh / subme=7 / psy=1 / psy_rd=1.00:0.15 / mixed_ref=1 / me_range=16 / chroma_me=1 / trellis=1 / 8x8dct=1 / cqm=0 / deadzone=21,11 / fast_pskip=0 / chroma_qp_offset=-3 / threads=12 / sliced_threads=0 / nr=0 / decimate=1 / interlaced=0 / bluray_compat=0 / constrained_intra=0 / bframes=3 / b_pyramid=2 / b_adapt=1 / b_bias=0 / direct=1 / weightb=1 / open_gop=0 / weightp=2 / keyint=250 / keyint_min=23 / scenecut=40 / intra_refresh=0 / rc_lookahead=40 / rc=2pass / mbtree=1 / bitrate=8505 / ratetol=1.0 / qcomp=0.60 / qpmin=0 / qpmax=69 / qpstep=4 / cplxblur=20.0 / qblur=0.5 / ip_ratio=1.40 / aq=1:1.00
Language : English
Default : Yes
Forced : No

Audio
ID : 2
Format : DTS
Format/Info : Digital Theater Systems
Mode : 16
Format settings, Endianness : Big
Codec ID : A_DTS
Duration : 1 h 33 min
Bit rate mode : Constant
Bit rate : 1 509 kb/s
Channel(s) : 6 channels
Channel positions : Front: L C R, Side: L R, LFE
Sampling rate : 48.0 kHz
Frame rate : 93.750 FPS (512 spf)
Bit depth : 24 bits
Compression mode : Lossy
Stream size : 1 011 MiB (15%)
Title : English DTS 1509kbps
Language : English
Default : Yes
Forced : No

Text
ID : 3
Format : UTF-8
Codec ID : S_TEXT/UTF8
Codec ID/Info : UTF-8 Plain Text
Title : English
Language : English
Default : No
Forced : No

Menu
00:00:00.000 : en:00:00:00.000
00:06:12.664 : en:00:06:12.664
00:11:11.462 : en:00:11:11.462
00:16:49.967 : en:00:16:49.967
00:24:26.590 : en:00:24:26.590
00:32:13.098 : en:00:32:13.098
00:39:00.838 : en:00:39:00.838
00:42:41.934 : en:00:42:41.934
00:50:00.080 : en:00:50:00.080
00:55:23.862 : en:00:55:23.862
01:01:39.571 : en:01:01:39.571
01:06:43.791 : en:01:06:43.791
01:12:09.742 : en:01:12:09.742
01:16:24.330 : en:01:16:24.330
01:21:42.314 : en:01:21:42.314
01:26:35.857 : en:01:26:35.857
01:28:50.325 : en:01:28:50.325




#1楼
发帖时间:2019-06-12 12:36:10   |   回复数:1
911degrees
隐世仙人♂
非常感谢,谢谢分享
1月前 #2楼
游客组