conanlcg
超级版主

[2011] [欧美] [喜剧] [BD-1080P] 波普先生的企鹅/黑癫鹅先生 Mr.Poppers.Penguins.2011.1080p.Bluray.x264-METiS 6.65GB

-->

帖子完整标题:波普先生的企鹅/黑癫鹅先生 Mr.Poppers.Penguins.2011.1080p.Bluray.x264-METiS 6.65GB




◎译  名 波普先生的企鹅 / 黑癫鹅先生(港)
◎片  名 Mr. Popper's Penguins
◎年  代 2011
◎产  地 美国
◎类  别 喜剧 / 家庭
◎语  言 英语
◎上映日期 2011-06-17(美国)
◎IMDb评分 6.0/10 from 80552 users
◎IMDb链接 http://www.imdb.com/title/tt1396218
◎豆瓣评分 7.3/10 from 52248 users
◎豆瓣链接 https://movie.douban.com/subject/3602084/
◎片  长 95分钟
◎导  演 马克·沃特斯 Mark Waters
◎编  剧 肖恩·安德鲁斯 Sean Anders / John Morris
◎主  演 金·凯瑞 Jim Carrey
      卡拉·古奇诺 Carla Gugino
      奥菲利亚·拉维邦德 Ophelia Lovibond
      菲利浦·贝克·霍尔 Philip Baker Hall
      玛德琳·卡罗尔 Madeline Carroll
      克拉克·格雷格 Clark Gregg


◎标  签 喜剧 | 美国 | 温情 | 搞笑 | 动物 | 家庭 | 2011 | 亲情

◎简  介

  波普先生(金·凯瑞 Jim Carrey 饰)是一个极富工作热情的高效率商人,在公司里备受重用,但却常常因此牺牲了与家人共处的时光。这个冬天,当他正在全力以赴地争取一位伤脑筋的合伙人时,前妻阿曼达(卡拉·古奇诺 Carla Gugino 饰)也准备开始自己的下一段恋情。 然而这一切随着一个快递箱子的到来而发生了意想不到的逆转——波普先生从已故父亲那里继承到了最不寻常的财产:一只活企鹅。就在他束手无策的时候,竟又收到了另外五只活企鹅。企鹅们一度将波普先生的规律生活与工作弄得一团糟,但他的小儿子却十分喜爱这些企鹅。然而,在纽约这样的大都市里,养企鹅虽是趣事,却绝对不是易事……
电影改编自理查德和佛罗伦萨·阿特沃特(Richard and Florence Atwater)共同撰写的同名儿童小说。

Video
ID : 1
Format : AVC
Format/Info : Advanced Video Codec
Format profile : [email protected]
Format settings, CABAC : Yes
Format settings, ReFrames : 4 frames
Muxing mode : Header stripping
Codec ID : V_MPEG4/ISO/AVC
Duration : 1h 34mn
Bit rate : 8 444 Kbps
Width : 1 920 pixels
Height : 1 040 pixels
Display aspect ratio : 1.85:1
Frame rate mode : Constant
Frame rate : 23.976 fps
Color space : YUV
Chroma subsampling : 4:2:0
Bit depth : 8 bits
Scan type : Progressive
Bits/(Pixel*Frame) : 0.176
Stream size : 5.43 GiB (83%)
Writing library : x264 core 119 r2106 07efeb4
Encoding settings : cabac=1 / ref=4 / deblock=1:0:0 / analyse=0x3:0x133 / me=umh / subme=7 / psy=1 / psy_rd=1.00:0.00 / mixed_ref=1 / me_range=16 / chroma_me=1 / trellis=1 / 8x8dct=1 / cqm=0 / deadzone=21,11 / fast_pskip=0 / chroma_qp_offset=-2 / threads=12 / sliced_threads=0 / nr=0 / decimate=1 / interlaced=0 / bluray_compat=0 / constrained_intra=0 / bframes=3 / b_pyramid=2 / b_adapt=2 / b_bias=0 / direct=3 / weightb=1 / open_gop=0 / weightp=2 / keyint=250 / keyint_min=23 / scenecut=40 / intra_refresh=0 / rc_lookahead=50 / rc=2pass / mbtree=1 / bitrate=8444 / ratetol=1.0 / qcomp=0.60 / qpmin=0 / qpmax=69 / qpstep=4 / cplxblur=20.0 / qblur=0.5 / ip_ratio=1.40 / aq=1:1.00
Language : English
Default : Yes
Forced : No

Audio
ID : 2
Format : DTS
Format/Info : Digital Theater Systems
Mode : 16
Format settings, Endianness : Big
Muxing mode : Header stripping
Codec ID : A_DTS
Duration : 1h 34mn
Bit rate mode : Constant
Bit rate : 1 509 Kbps
Channel(s) : 6 channels
Channel positions : Front: L C R, Side: L R, LFE
Sampling rate : 48.0 KHz
Bit depth : 24 bits
Compression mode : Lossy
Stream size : 1 018 MiB (15%)
Default : Yes
Forced : No




#1楼
发帖时间:2019-06-12 12:36:14   |   回复数:3
911degrees
隐世仙人♂
非常感谢,谢谢分享
6月前 #2楼
liyouchai
隐世仙人♂
谢谢楼主分享资源
6月前 #3楼
sh3790778
小有名气
谢谢楼主分享资源
6月前 #4楼
游客组