conanlcg
超级版主

[2011] [欧美] [惊悚] [BD-1080P] 你是下一个/下一个就是你 Youre.Next.2011.1080p.BluRay.x264-GECKOS 6.55GB

-->

帖子完整标题:你是下一个/下一个就是你 Youre.Next.2011.1080p.BluRay.x264-GECKOS 6.55GB




◎译  名 你是下一个 / 下一个就是你
◎片  名 You're Next
◎年  代 2011
◎产  地 美国
◎类  别 惊悚 / 恐怖
◎语  言 英语
◎上映日期 2011-09-10(多伦多电影节) / 2013-08-23(美国)
◎IMDb评分 6.6/10 from 79451 users
◎IMDb链接 http://www.imdb.com/title/tt1853739
◎豆瓣评分 6.7/10 from 13098 users
◎豆瓣链接 https://movie.douban.com/subject/6128025/
◎片  长 95分钟
◎导  演 亚当·温加德 Adam Wingard
◎编  剧 西蒙·巴雷特 Simon Barrett
◎主  演 沙妮·文森 Sharni Vinson
      Nicholas Tucci
      Wendy Glenn
      AJ Bowen
      乔·斯万博格 Joe Swanberg
      玛格丽特·兰妮 Margaret Laney
      Amy Seimetz
      缇·威斯特 Ti West
      Rob Moran
      巴巴拉·克兰普顿 Barbara Crampton
      L.C. Holt
      西蒙·巴雷特 Simon Barrett
      Lane Hughes


◎标  签 惊悚 | 恐怖 | 美国 | 血腥 | 美国电影 | 犯罪 | 暴力 | 2011

◎简  介

  在看似平常温馨的夜里,一个羊羔面具正在制造杀戮的阴霾,任何时间,任何人,都有可能成为面具杀手的下一个目标。年轻的艾琳(沙妮·文森 Sharni Vinson 饰)正随着她的男朋友克里斯皮安(AJ·鲍恩 AJ Bowen 饰)回密苏里度假屋中参加他父母的结婚纪念日。克里斯皮安的兄弟和妹妹都带着另一半前来聚会,一家人在饭桌前其乐融融。然而屋外却是另一番令人毛骨悚然的景象,几个头戴面具的杀手正对这家人虎视眈眈。突然,弟弟德雷克背部中枪,杀戮迅速展开,其他家庭成员相继受到惊吓和伤害。就在这危急时刻,艾琳反客为主,组织起全家防御,迸发出惊人的求生本能,度假屋瞬间变成你死我活的血腥战场……

Video
ID : 1
Format : AVC
Format/Info : Advanced Video Codec
Format profile : [email protected]
Format settings, CABAC : Yes
Format settings, ReFrames : 5 frames
Codec ID : V_MPEG4/ISO/AVC
Duration : 1 h 34 min
Bit rate : 8 433 kb/s
Width : 1 920 pixels
Height : 800 pixels
Display aspect ratio : 2.40:1
Frame rate mode : Constant
Frame rate : 23.976 FPS
Color space : YUV
Chroma subsampling : 4:2:0
Bit depth : 8 bits
Scan type : Progressive
Bits/(Pixel*Frame) : 0.229
Stream size : 5.43 GiB (83%)
Title : X264
Writing library : x264 core 140 r2377 1ca7bb9
Encoding settings : cabac=1 / ref=5 / deblock=1:0:0 / analyse=0x3:0x133 / me=umh / subme=7 / psy=1 / psy_rd=1.00:0.00 / mixed_ref=1 / me_range=16 / chroma_me=1 / trellis=1 / 8x8dct=1 / cqm=0 / deadzone=21,11 / fast_pskip=0 / chroma_qp_offset=-2 / threads=36 / lookahead_threads=6 / sliced_threads=0 / nr=0 / decimate=1 / interlaced=0 / bluray_compat=0 / constrained_intra=0 / bframes=3 / b_pyramid=2 / b_adapt=1 / b_bias=0 / direct=1 / weightb=1 / open_gop=0 / weightp=2 / keyint=250 / keyint_min=23 / scenecut=40 / intra_refresh=0 / rc_lookahead=40 / rc=2pass / mbtree=1 / bitrate=8433 / ratetol=1.0 / qcomp=0.60 / qpmin=0 / qpmax=69 / qpstep=4 / cplxblur=20.0 / qblur=0.5 / ip_ratio=1.40 / aq=1:1.00
Language : English
Default : Yes
Forced : No

Audio
ID : 2
Format : DTS
Format/Info : Digital Theater Systems
Mode : 16
Format settings, Endianness : Big
Codec ID : A_DTS
Duration : 1 h 34 min
Bit rate mode : Constant
Bit rate : 1 509 kb/s
Channel(s) : 6 channels
Channel positions : Front: L C R, Side: L R, LFE
Sampling rate : 48.0 kHz
Frame rate : 93.750 FPS (512 spf)
Bit depth : 24 bits
Compression mode : Lossy
Stream size : 1 019 MiB (15%)
Title : DTS
Language : English
Default : Yes
Forced : No




#1楼
发帖时间:2019-06-12 12:36:17   |   回复数:3
911degrees
隐世仙人♂
非常感谢,谢谢分享
1月前 #2楼
liyouchai
隐世仙人♂
谢谢楼主分享资源
1月前 #3楼
pokuan909
武林高手
非常感谢,谢谢分享
1月前 #4楼
游客组