conanlcg
超级版主

[更 早] [欧美] [喜剧] [BD-Remux] 乌龙陪审团 Jury.Duty.1995.1080p.BluRay.REMUX.AVC.DTS-HD.MA.2.0-FGT 18.85GB

-->

帖子完整标题:乌龙陪审团 Jury.Duty.1995.1080p.BluRay.REMUX.AVC.DTS-HD.MA.2.0-FGT 18.85GB




◎译  名 乌龙陪审团
◎片  名 Jury Duty
◎年  代 1995
◎产  地 美国
◎类  别 喜剧
◎语  言 英语
◎上映日期 1995-04-12
◎IMDb评分 4.2/10 from 7023 users
◎IMDb链接 http://www.imdb.com/title/tt0113500
◎豆瓣评分 5.0/10 from 55 users
◎豆瓣链接 https://movie.douban.com/subject/1306924/
◎片  长 88 分钟
◎导  演 约翰·福滕贝里 John Fortenberry
◎编  剧 Barbara Williams / Neil Tolkin / Samantha Adams
◎主  演 保利·肖尔 Pauly Shore
      蒂亚·卡雷尔 Tia Carrere
      斯坦利·图齐 Stanley Tucci
      布赖恩·道尔 Brian Doyle
      阿贝·维高达 Abe Vigoda
      查尔斯·纳佩尔 Charles Napier
      理查德·埃德森 Richard Edson
      谢利·温特斯 Shelley Winters


◎标  签 喜剧 | 美国 | 美国电影 | CCTV6 | 经典老片 | 犯罪 | 法律 | 正大剧场

◎简  介

  一名叫卡尔·威恩的建筑工人因涉嫌残害七条人命而被捕,围绕卡尔是否有罪的庭审随即开始。庭审开始前,包括汤米·格林斯、威萨利校长、斯威斯下士、露丝太太、莫尼卡小姐、环保人士法兰克在内的十二人陪审团成员齐聚法院大楼前,出庭审理卡尔·威恩一案。
平日里有点大脑“短路”的汤米和妈妈生活在贫民窟。就在四处寻求工作而毫无着落,妈妈又和靠捡拾垃圾为生的杰德叔叔旅游结婚时,汤米意外入选陪审团,成了卡尔一案的陪审员。由于卡尔一案民愤极大,考虑到庭审的需要,陪审团必须暂时与外界隔绝,汤米连同其他十一名陪审员被司法部门安置在一家正在装修的假日旅店。
枯燥的庭审,让除了汤米以外的十一名陪审员希望早日结束庭审,早日离开嘈杂不堪的假日旅店。可汤米并不这样想。能从工作无着、住宿和饮食无着的贫民窟,一下子住进假日酒店,尽管酒店装修的嘈杂严重地影响到汤米的正常休息,但汤米还是希望能在假日酒店多待些日子。为此,一次次正常的庭审被汤米的大脑“短路”给搅乱。
汤米在电视镜头前为假日酒店做的“宣传广告”,为假日酒店招揽来大批客人的同时,也为自己换来了入住总统套间的报酬。一个人享受着总统套间的待遇,汤米就更不希望结束庭审。所以,在一次关系到卡尔生死的陪审团投票表决中,惟独汤米投了无罪票。长时间不能统一意见的陪审团,随着卡尔一案暂时休庭而告结束,汤米无奈地走出假日旅店,回到贫民窟,和杰德叔叔一起捡拾垃圾。
一个偶然的机会,直觉告诉汤米,连环杀人案的主犯应该是一名激进的环保人士。当汤米第一个找到入住假日酒店时让他产生好感的莫尼卡小姐和环保人士法兰卡时,汤米丝毫没有觉察到,危险正在向自己一步步袭来。原来,法兰克就是真正的凶手。危急关头,汤米一只叫“豆豆”的宠物狗大显身手,从法兰克的刀下救下汤米和莫尼卡,让法兰克伏法的同时,还成就了汤米与莫尼卡一段美好姻缘。

Video
ID : 1
Format : AVC
Format/Info : Advanced Video Codec
Format profile : [email protected]
Format settings : CABAC / 4 Ref Frames
Format settings, CABAC : Yes
Format settings, ReFrames : 4 frames
Codec ID : V_MPEG4/ISO/AVC
Duration : 1 h 27 min
Bit rate mode : Variable
Bit rate : 29.1 Mb/s
Maximum bit rate : 30.0 Mb/s
Width : 1 920 pixels
Height : 1 080 pixels
Display aspect ratio : 16:9
Frame rate mode : Constant
Frame rate : 23.976 (24000/1001) FPS
Standard : NTSC
Color space : YUV
Chroma subsampling : 4:2:0
Bit depth : 8 bits
Scan type : Progressive
Bits/(Pixel*Frame) : 0.585
Stream size : 17.8 GiB (95%)
Title : Jury.Duty.1995.1080p.BluRay.REMUX.AVC.DTS-HD.MA.2.0-FGT
Language : English
Default : No
Forced : No
Color range : Limited
Color primaries : BT.709
Transfer characteristics : BT.709
Matrix coefficients : BT.709

Audio
ID : 2
Format : DTS XLL
Format/Info : Digital Theater Systems
Commercial name : DTS-HD Master Audio
Codec ID : A_DTS
Duration : 1 h 27 min
Bit rate mode : Variable
Bit rate : 1 632 kb/s
Channel(s) : 2 channels
Channel layout : L R
Sampling rate : 48.0 kHz
Frame rate : 93.750 FPS (512 SPF)
Bit depth : 24 bits
Compression mode : Lossless
Stream size : 1.00 GiB (5%)
Title : Jury.Duty.1995.1080p.BluRay.REMUX.AVC.DTS-HD.MA.2.0-FGT
Language : English
Default : Yes
Forced : No

Text
ID : 3
Format : PGS
Muxing mode : zlib
Codec ID : S_HDMV/PGS
Codec ID/Info : Picture based subtitle format used on BDs/HD-DVDs
Duration : 1 h 24 min
Bit rate : 28.9 kb/s
Count of elements : 3215
Stream size : 17.4 MiB (0%)
Title : English-PGS
Language : English
Default : Yes
Forced : No

Menu
00:00:00.000 : en:Chapter 01
00:07:39.792 : en:Chapter 02
00:18:59.513 : en:Chapter 03
00:30:16.731 : en:Chapter 04
00:40:56.537 : en:Chapter 05
00:54:00.403 : en:Chapter 06
01:09:08.477 : en:Chapter 07
01:23:57.115 : en:Chapter 08





1 个附件 售价 大小 下载 时间

Jury.Duty.1995.1080p.BluRay.REMUX.AVC.DTS-HD.MA.2.0-FGT.torrent 0 金币 94.81K 266 次 6天前

#1楼
发帖时间:2019-06-12 16:06:09   |   回复数:3
liyouchai
超凡入圣№
谢谢楼主分享资源
6天前 #2楼
tanchoohoon
武林盟主
谢谢楼主分享
6天前 #3楼
911degrees
隐世仙人♂
非常感谢,谢谢分享
6天前 #4楼
游客组