conanlcg
超级版主

[2018] [台湾] [爱情] [BD-1080P] 比悲伤更悲伤的故事 More.Than.Blue.2018.CHINESE.1080p.BluRay.x264.DD5.1-PbK 6.76GB

-->

帖子完整标题:比悲伤更悲伤的故事 More.Than.Blue.2018.CHINESE.1080p.BluRay.x264.DD5.1-PbK 6.76GB




◎译  名 比悲伤更悲伤的故事 / More Than Blue
◎片  名 比悲傷更悲傷的故事
◎年  代 2018
◎产  地 台湾
◎类  别 爱情
◎语  言 汉语普通话
◎上映日期 2018-11-30(台湾) / 2019-03-14(中国大陆)
◎IMDb评分 5.6/10 from 567 users
◎IMDb链接 http://www.imdb.com/title/tt9081562
◎豆瓣评分 4.8/10 from 102372 users
◎豆瓣链接 https://movie.douban.com/subject/27624661/
◎片  长 105分钟
◎导  演 林孝谦 Hsiao Chien Lin
◎编  剧 吕安弦 Lungshi Lü
◎主  演 陈意涵 Ivy Chen
      刘以豪 Jasper Liu
      张书豪 Bryan Shu-Hao Chang
      陈庭妮 Annie Chen
      吴映洁 Gemma Wu
      禾浩辰 Bruce Hung
      游大庆 Da-Ching
      石知田 Chih Tian Shih
      黄丽玲 A-Lin
      姚爱宁 Pi Pi Yao


◎标  签 爱情 | 悲伤 | 台湾 | 感动 | 恋爱 | 文艺 | 青春 | 人生

◎简  介

  唱片制作人张哲凯(刘以豪)和王牌作词人宋媛媛(陈意涵)相依为命,两人自幼身世坎坷只有彼此为伴,他们是亲人、是朋友,也彷佛是命中注定的另一半。父亲罹患遗传重症而被母亲抛弃的哲凯,深怕自己随时会发病不久人世,始终没有跨出友谊的界线对媛媛展露爱意。眼见哲凯的病情加重,他暗自决定用剩余的生命完成他们之间的终曲,再为媛媛找个可以托付一生的好男人。这时,事业有 成温柔体贴的医生(张书豪)适时的出现让他成为照顾媛媛的最佳人选,二人按部就班发展着关系。一切看似都在哲凯的计划下进行。然而,故事远比这里所写更要悲伤......

◎获奖情况

  第21届台北电影节(2019)
  台北电影奖 最佳摄影奖(提名) 关本良 / 郑智仁
  台北电影奖 最佳音乐奖(提名) 陈建骐 / 罗恩妮



Video
ID : 1
Format : AVC
Format/Info : Advanced Video Codec
Format profile : [email protected]
Format settings : CABAC / 5 Ref Frames
Format settings, CABAC : Yes
Format settings, ReFrames : 5 frames
Codec ID : V_MPEG4/ISO/AVC
Duration : 1 h 45 min
Bit rate : 8 500 kb/s
Width : 1 920 pixels
Height : 804 pixels
Display aspect ratio : 2.40:1
Frame rate mode : Constant
Frame rate : 24.000 FPS
Color space : YUV
Chroma subsampling : 4:2:0
Bit depth : 8 bits
Scan type : Progressive
Bits/(Pixel*Frame) : 0.229
Stream size : 6.29 GiB (93%)
Writing library : x264 core 146 r2538 121396c
Encoding settings : cabac=1 / ref=5 / deblock=1:-3:-3 / analyse=0x3:0x133 / me=umh / subme=10 / psy=1 / psy_rd=1.00:0.00 / mixed_ref=1 / me_range=32 / chroma_me=1 / trellis=2 / 8x8dct=1 / cqm=0 / deadzone=21,11 / fast_pskip=0 / chroma_qp_offset=-3 / threads=12 / lookahead_threads=2 / sliced_threads=0 / nr=0 / decimate=0 / interlaced=0 / bluray_compat=0 / constrained_intra=0 / bframes=8 / b_pyramid=2 / b_adapt=2 / b_bias=0 / direct=3 / weightb=1 / open_gop=0 / weightp=2 / keyint=240 / keyint_min=24 / scenecut=40 / intra_refresh=0 / rc_lookahead=60 / rc=2pass / mbtree=0 / bitrate=8500 / ratetol=1.0 / qcomp=0.60 / qpmin=0 / qpmax=69 / qpstep=4 / cplxblur=20.0 / qblur=0.5 / vbv_maxrate=62500 / vbv_bufsize=78125 / nal_hrd=none / filler=0 / ip_ratio=1.30 / pb_ratio=1.20 / aq=1:0.80
Language : Chinese
Default : Yes
Forced : No

Audio
ID : 2
Format : AC-3
Format/Info : Audio Coding 3
Commercial name : Dolby Digital
Codec ID : A_AC3
Duration : 1 h 45 min
Bit rate mode : Constant
Bit rate : 640 kb/s
Channel(s) : 6 channels
Channel layout : L R C LFE Ls Rs
Sampling rate : 48.0 kHz
Frame rate : 31.250 FPS (1536 SPF)
Bit depth : 16 bits
Compression mode : Lossy
Stream size : 485 MiB (7%)
Language : Chinese
Service kind : Complete Main
Default : Yes
Forced : No

Text
ID : 3
Format : UTF-8
Codec ID : S_TEXT/UTF8
Codec ID/Info : UTF-8 Plain Text
Duration : 1 h 41 min
Bit rate : 52 b/s
Count of elements : 1814
Stream size : 38.9 KiB (0%)
Language : English
Default : Yes
Forced : No

Menu
00:00:00.000 : zh:第 01 章
00:03:40.042 : zh:第 02 章
00:09:53.000 : zh:第 03 章
00:16:43.625 : zh:第 04 章
00:20:45.042 : zh:第 05 章
00:25:47.125 : zh:第 06 章
00:31:12.333 : zh:第 07 章
00:34:23.917 : zh:第 08 章
00:42:14.917 : zh:第 09 章
00:46:28.958 : zh:第 10 章
00:53:51.958 : zh:第 11 章
00:58:39.083 : zh:第 12 章
01:03:28.375 : zh:第 13 章
01:07:50.208 : zh:第 14 章
01:12:10.875 : zh:第 15 章
01:18:56.000 : zh:第 16 章
01:24:01.708 : zh:第 17 章
01:28:00.208 : zh:第 18 章
01:31:55.250 : zh:第 19 章
01:35:51.917 : zh:第 20 章





1 个附件 售价 大小 下载 时间

More.Than.Blue.2018.CHINESE.1080p.BluRay.x264.DD5.1-PbK.torrent 0 金币 34.36K 2359 次 6天前

#1楼
发帖时间:2019-06-13 01:25:15   |   回复数:3
liyouchai
超凡入圣№
谢谢楼主分享资源
6天前 #2楼
911degrees
隐世仙人♂
非常感谢,谢谢分享
6天前 #3楼
wybt
武林高手
感谢分享。
6天前 #4楼
游客组