conanlcg
超级版主

[更 早] [日本] [剧情] [BD-1080P] 彼岸花 Equinox.Flower.1958.1080p.BluRay.x264-aBD 7.94GB

-->

帖子完整标题:彼岸花 Equinox.Flower.1958.1080p.BluRay.x264-aBD 7.94GB




◎译  名 Equinox Flower / Higanbana
◎片  名 彼岸花
◎年  代 1958
◎产  地 日本
◎类  别 剧情 / 家庭
◎语  言 日语
◎上映日期 1958-09-07
◎IMDb评分 8.0/10 from 3177 users
◎IMDb链接 http://www.imdb.com/title/tt0051720
◎豆瓣评分 8.3/10 from 4332 users
◎豆瓣链接 https://movie.douban.com/subject/1296834/
◎片  长 118 分钟
◎导  演 小津安二郎 Yasujiro Ozu
◎编  剧 野田高梧 K?go Noda / 小津安二郎 Yasujiro Ozu / 里见弴 Ton Santoni
◎主  演 佐分利信 Shin Saburi
      田中绢代 Kinuyo Tanaka
      山本富士子 Fujiko Yamamoto
      久我美子 Yoshiko Kuga
      有马稻子 Ineko Arima
      笠智众 Chish? Ry?
      北龙二 Ry?ji Kita


◎标  签 小津安二郎 | 日本 | 日本电影 | 1958 | 1950s | 田中绢代 | 家庭 | 彼岸花

◎简  介

  某个婚礼上,与新娘父亲同期的三上周吉(笠智众 饰)独独缺席,原来他的女儿文子(久我美子 饰)坚持离家出走,和所爱的男人住到一起,令周吉颇为烦恼。周吉拜托公司常务,同时也是他的好友平山涉(佐分利信 饰)去文子工作地点探望。有道是别人家的事总归无关痛痒,平山虽然看似开明表示理解文子的做法,可是放到自身态度就立马180度大转弯。他的大女儿节子与公司员工谷口正彦(佐田啓二 饰)自由恋爱,打乱了平山对女儿婚事的安排。父亲和女儿不仅仅是两代人的关系,更好像天生依存而又互相折磨的冤家,一代又一代,宿命地轮回下去……
本片根据里見弴的原作改编。

Video
ID : 1
Format : AVC
Format/Info : Advanced Video Codec
Format profile : [email protected]
Format settings : CABAC / 4 Ref Frames
Format settings, CABAC : Yes
Format settings, ReFrames : 4 frames
Codec ID : V_MPEG4/ISO/AVC
Duration : 1 h 57 min
Bit rate : 9 479 kb/s
Width : 1 440 pixels
Height : 1 080 pixels
Display aspect ratio : 4:3
Frame rate mode : Constant
Frame rate : 24.000 FPS
Color space : YUV
Chroma subsampling : 4:2:0
Bit depth : 8 bits
Scan type : Progressive
Bits/(Pixel*Frame) : 0.254
Stream size : 7.63 GiB (96%)
Writing library : x264 core 112 r1867 22bfd31
Encoding settings : cabac=1 / ref=4 / deblock=1:-1:-1 / analyse=0x3:0x113 / me=umh / subme=7 / psy=1 / psy_rd=1.00:0.00 / mixed_ref=1 / me_range=16 / chroma_me=1 / trellis=1 / 8x8dct=1 / cqm=0 / deadzone=21,11 / fast_pskip=1 / chroma_qp_offset=-2 / threads=12 / sliced_threads=0 / nr=0 / decimate=1 / interlaced=0 / constrained_intra=0 / bframes=3 / b_pyramid=2 / b_adapt=2 / b_bias=0 / direct=3 / weightb=1 / open_gop=0 / weightp=2 / keyint=250 / keyint_min=24 / scenecut=40 / intra_refresh=0 / rc_lookahead=40 / rc=2pass / mbtree=1 / bitrate=9479 / ratetol=1.0 / qcomp=0.60 / qpmin=0 / qpmax=51 / qpstep=4 / cplxblur=20.0 / qblur=0.5 / vbv_maxrate=50000 / vbv_bufsize=50000 / nal_hrd=none / ip_ratio=1.40 / aq=1:1.00
Language : Japanese
Default : Yes
Forced : Yes

Audio
ID : 2
Format : AC-3
Format/Info : Audio Coding 3
Commercial name : Dolby Digital
Codec ID : A_AC3
Duration : 1 h 57 min
Bit rate mode : Constant
Bit rate : 192 kb/s
Channel(s) : 2 channels
Channel layout : L R
Sampling rate : 48.0 kHz
Frame rate : 31.250 FPS (1536 SPF)
Bit depth : 16 bits
Compression mode : Lossy
Stream size : 161 MiB (2%)
Language : Japanese
Service kind : Complete Main
Default : Yes
Forced : Yes

Text
ID : 3
Format : UTF-8
Codec ID : S_TEXT/UTF8
Codec ID/Info : UTF-8 Plain Text
Language : English
Default : Yes
Forced : No





1 个附件 售价 大小 下载 时间

Equinox.Flower.1958.1080p.BluRay.x264-aBD.torrent 0 金币 40.21K 686 次 3天前

#1楼
发帖时间:2019-06-13 01:49:14   |   回复数:4
liyouchai
超凡入圣№
谢谢楼主分享资源
3天前 #2楼
jokingcheung
一代宗师
谢谢分享
3天前 #3楼
911degrees
隐世仙人♂
非常感谢,谢谢分享
3天前 #4楼
tanchoohoon
武林盟主
感谢楼主的无私分享
2天前 #5楼
游客组