conanlcg
超级版主

[2006] [香港] [剧情] [BD-1080P] 黑社會以和為貴 Election.II.2006.1080p.BluRay.x264-aBD 7.93GB

-->

帖子完整标题:黑社會以和為貴 Election.II.2006.1080p.BluRay.x264-aBD 7.93GB




◎译  名 黑社会2:以和为贵 / Election 2 / 黑社会2
◎片  名 黑社會以和為貴
◎年  代 2006
◎产  地 香港
◎类  别 剧情 / 惊悚 / 犯罪
◎语  言 汉语普通话 / 粤语
◎上映日期 2006-04-27(香港)
◎IMDb评分 7.4/10 from 5193 users
◎IMDb链接 http://www.imdb.com/title/tt0491244
◎豆瓣评分 7.9/10 from 70524 users
◎豆瓣链接 https://movie.douban.com/subject/1484760/
◎片  长 92分钟
◎导  演 杜琪峰 Johnnie To
◎编  剧 游乃海 Nai-Hoi Yau / 叶天成 Tin-Shing Yip
◎主  演 古天乐 Louis Koo
      任达华 Simon Yam
      张家辉 Nick Cheung
      林家栋 Ka Tung Lam
      王天林 Tian-lin Wang
      林雪 Suet Lam
      安志杰 Andy On
      郑浩南 Mark Cheng
      张兆辉 Siu-Fai Cheung
      谭炳文 Ping-Man Tam
      尤勇 Yong You
      潘月彤 Yue-Tong Pan
      张武孝 Mo-Hau Cheung
      元彬 Bun Yuen
      莫醒麟 Shing Lun Mok
      李日昇 Jonathan Yat-Sing Lee
      黄思恩 Sze Yan Wong
      徐忠信 Alan Chui Chung San
      罗强 Chiang Lo
      赵志诚 Chiu Chi Shing
      罗靖庭 Ching Ting Law
      唐培中 Pui Chung Tong
      张荣祥 Cheung Wing-Cheung
      张志平 Chi Ping Chang
      陈绍佳 Shao-Chia Chen
      周建军 Jianjun Zhou
      李发源 Fa Yuan Li
      陈桂芬 Brenda Chan
      樊文杰 Man Kit Fan
      凌振帮 Chun Pong Ling
      余袁稳 Yu Yuen Yin


◎标  签 杜琪峰 | 香港 | 黑帮 | 香港电影 | 古天乐 | 黑社会 | 银河映像 | 任达华

◎简  介

  自从阿乐(任达华饰)当上和联胜办事人后,总算有一个过度性的安宁局面。然而,两年一度的办事人选举又一次即将来临。
现任办事人阿乐留恋身份权力,希望说服一众元老和邓伯(王天林饰)修例让其连任。而人马众多的Jimmy仔(古天乐饰)为被看好的新办事人人选,但他却只想着生意。一次交易,Jimmy在国内被捕,对方告诫他不可从事生意活动,除非身为办事人。为了大计,Jimmy终与阿乐反目,争当办事人。
另一边,阿乐为了铲除障碍,说服东莞仔(林家栋饰)与其联手,绑架Jimmy幕后老板以迫其放弃。一场腥风血雨的冲突拉开序幕,最后他们的恩怨如何解决?是否真能以和为贵?

◎获奖情况

  第26届香港电影金像奖(2007)
  最佳电影(提名) 杜琪峰 / 罗守耀
  最佳导演(提名) 杜琪峰
  最佳编剧(提名) 游乃海 / 叶天成
  最佳男配角(提名) 任达华 / 张家辉

  第7届华语电影传媒大奖(2007)
  评审团奖 杜琪峰
  最佳电影(提名)
  最佳导演(提名) 杜琪峰
  最佳编剧(提名) 游乃海 / 叶天成



Video
ID : 1
Format : AVC
Format/Info : Advanced Video Codec
Format profile : [email protected]
Format settings : CABAC / 5 Ref Frames
Format settings, CABAC : Yes
Format settings, ReFrames : 5 frames
Codec ID : V_MPEG4/ISO/AVC
Duration : 1 h 32 min
Bit rate : 10.7 Mb/s
Width : 1 920 pixels
Height : 800 pixels
Display aspect ratio : 2.40:1
Frame rate mode : Constant
Frame rate : 24.000 FPS
Color space : YUV
Chroma subsampling : 4:2:0
Bit depth : 8 bits
Scan type : Progressive
Bits/(Pixel*Frame) : 0.291
Stream size : 6.80 GiB (86%)
Writing library : x264 core 67 r1134M b8808bf
Encoding settings : cabac=1 / ref=5 / deblock=1:-1:-1 / analyse=0x3:0x113 / me=umh / subme=7 / psy_rd=1.0:0.0 / mixed_ref=1 / me_range=16 / chroma_me=1 / trellis=2 / 8x8dct=1 / cqm=0 / deadzone=21,11 / chroma_qp_offset=-2 / threads=6 / nr=0 / decimate=1 / mbaff=0 / bframes=3 / b_pyramid=0 / b_adapt=2 / b_bias=0 / direct=3 / wpredb=1 / keyint=250 / keyint_min=25 / scenecut=40 / rc=2pass / bitrate=10734 / ratetol=1.0 / qcomp=0.60 / qpmin=10 / qpmax=51 / qpstep=4 / cplxblur=20.0 / qblur=0.5 / vbv_maxrate=50000 / vbv_bufsize=50000 / ip_ratio=1.40 / pb_ratio=1.30 / aq=1:1.00
Language : Chinese
Default : Yes
Forced : No

Audio
ID : 2
Format : DTS
Format/Info : Digital Theater Systems
Codec ID : A_DTS
Duration : 1 h 32 min
Bit rate mode : Constant
Bit rate : 1 509 kb/s
Channel(s) : 6 channels
Channel layout : C L R Ls Rs LFE
Sampling rate : 48.0 kHz
Frame rate : 93.750 FPS (512 SPF)
Bit depth : 16 bits
Compression mode : Lossy
Stream size : 1 001 MiB (12%)
Language : Chinese
Default : Yes
Forced : No

Text
ID : 3
Format : UTF-8
Codec ID : S_TEXT/UTF8
Codec ID/Info : UTF-8 Plain Text
Language : English
Default : Yes
Forced : No





1 个附件 售价 大小 下载 时间

Election.II.2006.1080p.BluRay.x264-aBD.torrent 0 金币 40.15K 2030 次 6天前

#1楼
发帖时间:2019-06-13 01:51:15   |   回复数:6
liyouchai
超凡入圣№
谢谢楼主分享资源
6天前 #2楼
jokingcheung
一代宗师
谢谢分享
6天前 #3楼
911degrees
隐世仙人♂
非常感谢,谢谢分享
6天前 #4楼
pokuan909
小有名气
非常感谢,谢谢分享
6天前 #5楼
yeqingzhijia
武林高手
非常感谢,谢谢分享
5天前 #6楼
紫雾金芒
武林高手
呵呵,感谢分享黑社会2:以和为贵
3天前 #7楼
游客组