conanlcg
超级版主

[更 早] [其他] [剧情] [BD-1080P] 黑侠2 Black.Mask.2.City.Of.Masks.2002.1080p.BluRay.x264-aBD 6.55GB

-->

帖子完整标题:黑侠2 Black.Mask.2.City.Of.Masks.2002.1080p.BluRay.x264-aBD 6.55GB




◎译  名 Black Mask 2: City of Masks / Black Mask II
◎片  名 黑侠2
◎年  代 2002
◎产  地 香港 / 美国
◎类  别 剧情 / 动作 / 科幻
◎语  言 英语 / 日语
◎上映日期 2002-12-24
◎IMDb评分 3.6/10 from 1578 users
◎IMDb链接 http://www.imdb.com/title/tt0264429
◎豆瓣评分 4.9/10 from 3221 users
◎豆瓣链接 https://movie.douban.com/subject/1306935/
◎片  长 Hong Kong: 102 分钟(DVD)
◎导  演 徐克
◎编  剧 Charles Cain / Jeff Black / 徐克
◎主  演 安志杰
      Sean Marquette
      Tobin Bell
      Jon Polito
      柯受良
      尹子维


◎标  签 动作 | 徐克 | 香港 | 科幻 | 香港电影 | 安志杰 | 黑侠 | 2001

◎简  介

  一个神秘的军事组织,通过改变基因将普通人改造为体能、反应和速度都远远高于常人的生物武器,并将它们贩卖给黑帮组织。强风(安志杰 饰)就是其中的一员,可是,善良的他并不愿意助纣为虐,而是选择逃离了组织的控制,化身为惩恶扬善的“黑侠”,在世界各地弘扬正义。
军事组织的首领宙斯得知了强风逃跑的消息,派出了冷血残酷的杀手梁,想要将强风捉拿归案。与此同时,一位疯狂的科学家企图将人类和动物的基因结合在一起创造出新的物种,结果可想而知,他得到的是一群半人半兽的怪物。科学家得知强风的血液能够帮助他走出研究的困境,于是亦对强风展开了追捕。

Video
ID : 1
Format : AVC
Format/Info : Advanced Video Codec
Format profile : [email protected]
Format settings : CABAC / 5 Ref Frames
Format settings, CABAC : Yes
Format settings, ReFrames : 5 frames
Codec ID : V_MPEG4/ISO/AVC
Duration : 1 h 42 min
Bit rate : 8 518 kb/s
Width : 1 920 pixels
Height : 832 pixels
Display aspect ratio : 2.35:1
Frame rate mode : Constant
Frame rate : 24.000 FPS
Color space : YUV
Chroma subsampling : 4:2:0
Bit depth : 8 bits
Scan type : Progressive
Bits/(Pixel*Frame) : 0.222
Stream size : 6.09 GiB (93%)
Writing library : x264 core 114 r1924 08d04a4
Encoding settings : cabac=1 / ref=5 / deblock=1:-1:-1 / analyse=0x3:0x113 / me=umh / subme=7 / psy=1 / psy_rd=1.00:0.00 / mixed_ref=1 / me_range=16 / chroma_me=1 / trellis=1 / 8x8dct=1 / cqm=0 / deadzone=21,11 / fast_pskip=1 / chroma_qp_offset=-2 / threads=12 / sliced_threads=0 / nr=0 / decimate=1 / interlaced=0 / constrained_intra=0 / bframes=3 / b_pyramid=2 / b_adapt=2 / b_bias=0 / direct=3 / weightb=1 / open_gop=0 / weightp=2 / keyint=250 / keyint_min=24 / scenecut=40 / intra_refresh=0 / rc_lookahead=40 / rc=2pass / mbtree=1 / bitrate=8518 / ratetol=1.0 / qcomp=0.60 / qpmin=0 / qpmax=69 / qpstep=4 / cplxblur=20.0 / qblur=0.5 / vbv_maxrate=50000 / vbv_bufsize=50000 / nal_hrd=none / ip_ratio=1.40 / aq=1:1.00
Language : English
Default : Yes
Forced : Yes

Audio
ID : 2
Format : AC-3
Format/Info : Audio Coding 3
Commercial name : Dolby Digital
Codec ID : A_AC3
Duration : 1 h 42 min
Bit rate mode : Constant
Bit rate : 640 kb/s
Channel(s) : 6 channels
Channel layout : L R C LFE Ls Rs
Sampling rate : 48.0 kHz
Frame rate : 31.250 FPS (1536 SPF)
Bit depth : 16 bits
Compression mode : Lossy
Stream size : 468 MiB (7%)
Language : English
Service kind : Complete Main
Default : Yes
Forced : Yes





1 个附件 售价 大小 下载 时间

Black.Mask.2.City.Of.Masks.2002.1080p.BluRay.x264-aBD.torrent 0 金币 33.28K 903 次 6天前

#1楼
发帖时间:2019-06-13 01:55:18   |   回复数:4
liyouchai
超凡入圣№
谢谢楼主分享资源
6天前 #2楼
911degrees
隐世仙人♂
非常感谢,谢谢分享
6天前 #3楼
kola13
一派掌门
感谢分享
5天前 #4楼
tanchoohoon
武林盟主
感谢楼主的无私分享
5天前 #5楼
游客组