conanlcg
超级版主

[更 早] [香港] [剧情] [BD-1080P] 秋天的童話 An.Autumns.Tale.1987.1080p.BluRay.x264-aBD 6.56GB

-->

帖子完整标题:秋天的童話 An.Autumns.Tale.1987.1080p.BluRay.x264-aBD 6.56GB




◎译  名 秋天的童话 / An Autumn's Tale / 流氓大亨
◎片  名 秋天的童話
◎年  代 1987
◎产  地 香港
◎类  别 剧情 / 爱情
◎语  言 粤语 / 英语 / 日语
◎上映日期 1987-07-16
◎IMDb评分 7.8/10 from 1327 users
◎IMDb链接 http://www.imdb.com/title/tt0093426
◎豆瓣评分 8.4/10 from 58315 users
◎豆瓣链接 https://movie.douban.com/subject/1301912/
◎片  长 Canada: 98 分钟
◎导  演 张婉婷 Mabel Cheung
◎编  剧 罗启锐 Alex Law
◎主  演 周润发 Yun-Fat Chow
      钟楚红 Cherie Chung
      陈百强 Danny Chan Bak-Keung
      黄淑仪 Gigi Wong Suk Yee


◎标  签 周润发 | 钟楚红 | 爱情 | 香港 | 香港电影 | 经典 | 张婉婷 | 秋天的童话

◎简  介

  留学生李琪(钟楚红 饰)独自一人从香港到纽约读书,满心以为接机的会是自己的男友(陈百强 饰),来到却是一位远方亲戚和一位在唐人街打工的船头尺(周润发 饰)。原来自己的男友已经移情别恋了,令李琪伤心不已,把自己关在房内。船头尺不放心前往询问,闻到煤气味便以为李琪自杀,原来只是煤气泄漏。船头尺鼓励李琪就算一个人也要好好生活读书,李琪得到了他的鼓励及帮助,便开始专心读书和工作。当中船头尺也屡遭不顺,两人互相帮助之余,船头尺也爱上了李琪……

◎获奖情况

  第24届台北金马影展(1987)
  金马奖 最佳剧情片(提名)
  金马奖 最佳导演(提名) 张婉婷
  金马奖 最佳男主角 周润发
  金马奖 最佳女主角(提名) 钟楚红
  金马奖 最佳原著剧本(提名) 罗启锐
  金马奖 最佳摄影(提名) 钟志文

  第7届香港电影金像奖(1988)
  最佳电影 岑建勋 / 潘迪生
  最佳导演(提名) 张婉婷
  最佳编剧 罗启锐
  最佳男主角(提名) 周润发
  最佳女主角(提名) 钟楚红
  最佳摄影 钟志文 / 詹姆斯·海曼
  最佳原创电影音乐(提名) 卢冠廷



Video
ID : 1
Format : AVC
Format/Info : Advanced Video Codec
Format profile : [email protected]
Format settings : CABAC / 4 Ref Frames
Format settings, CABAC : Yes
Format settings, ReFrames : 4 frames
Codec ID : V_MPEG4/ISO/AVC
Duration : 1 h 38 min
Bit rate : 8 907 kb/s
Width : 1 920 pixels
Height : 1 040 pixels
Display aspect ratio : 1.85:1
Frame rate mode : Constant
Frame rate : 23.976 (24000/1001) FPS
Color space : YUV
Chroma subsampling : 4:2:0
Bit depth : 8 bits
Scan type : Progressive
Bits/(Pixel*Frame) : 0.186
Stream size : 5.99 GiB (91%)
Writing library : x264 core 112 r1834 a51816a
Encoding settings : cabac=1 / ref=4 / deblock=1:-1:-1 / analyse=0x3:0x113 / me=umh / subme=7 / psy=1 / psy_rd=1.00:0.00 / mixed_ref=1 / me_range=16 / chroma_me=1 / trellis=1 / 8x8dct=1 / cqm=0 / deadzone=21,11 / fast_pskip=1 / chroma_qp_offset=-2 / threads=12 / sliced_threads=0 / nr=0 / decimate=1 / interlaced=0 / constrained_intra=0 / bframes=3 / b_pyramid=2 / b_adapt=2 / b_bias=0 / direct=3 / weightb=1 / open_gop=0 / weightp=2 / keyint=250 / keyint_min=23 / scenecut=40 / intra_refresh=0 / rc_lookahead=40 / rc=2pass / mbtree=1 / bitrate=8907 / ratetol=1.0 / qcomp=0.60 / qpmin=0 / qpmax=51 / qpstep=4 / cplxblur=20.0 / qblur=0.5 / vbv_maxrate=50000 / vbv_bufsize=50000 / ip_ratio=1.40 / aq=1:1.00 / nal_hrd=none
Language : Chinese
Default : Yes
Forced : Yes

Audio
ID : 2
Format : AC-3
Format/Info : Audio Coding 3
Commercial name : Dolby Digital
Codec ID : A_AC3
Duration : 1 h 38 min
Bit rate mode : Constant
Bit rate : 640 kb/s
Channel(s) : 6 channels
Channel layout : L R C LFE Ls Rs
Sampling rate : 48.0 kHz
Frame rate : 31.250 FPS (1536 SPF)
Bit depth : 16 bits
Compression mode : Lossy
Stream size : 450 MiB (7%)
Language : Chinese
Service kind : Complete Main
Default : Yes
Forced : Yes

Text
ID : 3
Format : UTF-8
Codec ID : S_TEXT/UTF8
Codec ID/Info : UTF-8 Plain Text
Language : English
Default : Yes
Forced : No





1 个附件 售价 大小 下载 时间

An.Autumns.Tale.1987.1080p.BluRay.x264-aBD.torrent 0 金币 33.27K 1813 次 6天前

#1楼
发帖时间:2019-06-13 01:57:20   |   回复数:4
liyouchai
超凡入圣№
谢谢楼主分享资源
6天前 #2楼
jokingcheung
一代宗师
谢谢分享
6天前 #3楼
911degrees
隐世仙人♂
非常感谢,谢谢分享
6天前 #4楼
pokuan909
小有名气
非常感谢,谢谢分享
6天前 #5楼
游客组