conanlcg
超级版主

[更 早] [欧美] [其他] [BD-1080P] 灵异骇客/亡灵呼唤 Stir.Of.Echoes.1999.1080p.BluRay.x264-HDMI 7.95GB

-->

帖子完整标题:灵异骇客/亡灵呼唤 Stir.Of.Echoes.1999.1080p.BluRay.x264-HDMI 7.95GB




◎译  名 灵异骇客 / 亡灵呼唤 / 回音大骚动 / 幻觉回声 / 恶夜回声
◎片  名 Stir of Echoes
◎年  代 1999
◎产  地 美国
◎类  别 悬疑 / 惊悚 / 恐怖
◎语  言 英语
◎上映日期 1999-09-10
◎IMDb评分 7.0/10 from 69627 users
◎IMDb链接 http://www.imdb.com/title/tt0164181
◎豆瓣评分 6.5/10 from 858 users
◎豆瓣链接 https://movie.douban.com/subject/1292910/
◎片  长 99 分钟
◎导  演 大卫·凯普 David Koepp
◎编  剧 大卫·凯普 David Koepp / 理查德·麦瑟森 Richard Matheson
◎主  演 凯文·贝肯 Kevin Bacon
      凯瑟琳·厄布 Kathryn Erbe
      伊里纳·道格拉斯 Illeana Douglas


◎标  签 惊悚 | 恐怖 | 美国 | 悬疑 | 灵异 | 1999 | 美国电影 | KevinBacon

◎简  介

  线路工人汤姆·维特斯基(凯文·贝肯 Kevin Bacon 饰)和麦姬(凯瑟琳·厄比 Kathryn Erbe 饰)是一对普通的美国夫妇,他们和儿子杰克(Zachary David Cope 饰)以及麦姬的妹妹丽莎(伊莲娜·道格拉斯 Illeana Douglas 饰)住在芝加哥的郊区,生活波澜不惊。丽莎青春年少,性感迷人,带着神秘的气质。在一次派对上,汤姆被丽莎催眠,继而经历了一场短暂而惊悸的梦境。这次经历让汤姆陷入不安中,奇怪的幻像自此时常出现在他的眼前,生活也开始为诡异的氛围所包围。与此同时,年幼的杰克似乎也和父亲有着同样的感受……
本片根据理查德·麦瑟森(Richard Matheson)的同名小说改编,并荣获2000年国际恐怖导刊最佳影片。

Video
ID : 1
Format : AVC
Format/Info : Advanced Video Codec
Format profile : [email protected]
Format settings : CABAC / 4 Ref Frames
Format settings, CABAC : Yes
Format settings, ReFrames : 4 frames
Codec ID : V_MPEG4/ISO/AVC
Duration : 1 h 39 min
Bit rate : 10.8 Mb/s
Width : 1 920 pixels
Height : 1 080 pixels
Display aspect ratio : 16:9
Frame rate mode : Constant
Frame rate : 23.976 FPS
Color space : YUV
Chroma subsampling : 4:2:0
Bit depth : 8 bits
Scan type : Progressive
Bits/(Pixel*Frame) : 0.218
Stream size : 7.35 GiB (92%)
Writing library : x264 core 67 r1127M 8d82fec
Encoding settings : cabac=1 / ref=4 / deblock=1:0:0 / analyse=0x3:0x133 / me=umh / subme=7 / psy_rd=1.0:0.0 / mixed_ref=1 / me_range=16 / chroma_me=1 / trellis=1 / 8x8dct=1 / cqm=0 / deadzone=21,11 / chroma_qp_offset=-2 / threads=6 / nr=0 / decimate=1 / mbaff=0 / bframes=3 / b_pyramid=1 / b_adapt=1 / b_bias=0 / direct=1 / wpredb=1 / keyint=250 / keyint_min=25 / scenecut=40 / rc=2pass / bitrate=10838 / ratetol=1.0 / qcomp=0.60 / qpmin=10 / qpmax=51 / qpstep=4 / cplxblur=20.0 / qblur=0.5 / ip_ratio=1.40 / pb_ratio=1.30 / aq=1:1.00
Language : English
Default : Yes
Forced : No

Audio
ID : 2
Format : AC-3
Format/Info : Audio Coding 3
Commercial name : Dolby Digital
Codec ID : A_AC3
Duration : 1 h 39 min
Bit rate mode : Constant
Bit rate : 640 kb/s
Channel(s) : 6 channels
Channel layout : L R C LFE Ls Rs
Sampling rate : 48.0 kHz
Frame rate : 31.250 FPS (1536 SPF)
Bit depth : 16 bits
Compression mode : Lossy
Stream size : 454 MiB (6%)
Language : English
Service kind : Complete Main
Default : Yes
Forced : No

Text #1
ID : 3
Format : UTF-8
Codec ID : S_TEXT/UTF8
Codec ID/Info : UTF-8 Plain Text
Default : Yes
Forced : No

Text #2
ID : 4
Format : UTF-8
Codec ID : S_TEXT/UTF8
Codec ID/Info : UTF-8 Plain Text
Default : No
Forced : No





1 个附件 售价 大小 下载 时间

Stir.Of.Echoes.1999.1080p.BluRay.x264-HDMI.torrent 0 金币 40.27K 581 次 6天前

#1楼
发帖时间:2019-06-13 02:03:23   |   回复数:2
liyouchai
超凡入圣№
谢谢楼主分享资源
6天前 #2楼
911degrees
隐世仙人♂
非常感谢,谢谢分享
6天前 #3楼
游客组