conanlcg
超级版主

[更 早] [其他] [喜剧] [BD-1080P] 新婚告急/玩串婚后事 Just.Married.2003.1080p.BluRay.x264-HD4U 6.56GB

-->

帖子完整标题:新婚告急/玩串婚后事 Just.Married.2003.1080p.BluRay.x264-HD4U 6.56GB




◎译  名 新婚告急 / 玩串婚后事
◎片  名 Just Married
◎年  代 2003
◎产  地 美国 / 德国
◎类  别 喜剧 / 爱情
◎语  言 英语 / 法语 / 德语 / 意大利语
◎上映日期 2003-01-10
◎IMDb评分 5.5/10 from 64209 users
◎IMDb链接 http://www.imdb.com/title/tt0305711
◎豆瓣评分 6.3/10 from 7549 users
◎豆瓣链接 https://movie.douban.com/subject/1305934/
◎片  长 95 分钟
◎导  演 Shawn Levy
◎编  剧 Sam Harper
◎主  演 阿什顿·库彻 Ashton Kutcher
      布莱特妮·墨菲 Brittany Murphy
      大卫·莫斯科 David Moscow
      莫奈特·玛佐 Monet Mazur
      克里斯蒂安·凯恩 Christian Kane


◎标  签 爱情 | 喜剧 | 美国 | 美国电影 | BrittanyMurphy | AshtonKutcher | 青春 | 2003

◎简  介

  莎拉(布莱特妮?墨菲 Brittany Murphy 饰)出身豪门,天生叛逆的她从来不想接受父母的安排:家人安排的高薪厚职她不屑一顾,反而当起了一名作家;对于他们安排的富有的“未来女婿”,她更是深恶痛绝。这天,莎拉偶遇了出身平凡的交通报道员汤姆(艾什顿?库彻 Ashton Kutcher 饰),两人很快堕入了爱河。然而莎拉的父母坚决反对,原因很简单,汤姆出身平民,平平无奇,这和他们心目中的乘龙快婿相去甚远,他们可不想这个平凡的男人成为家里的一份子。于是,在萨拉和汤姆婚后度蜜月时,一场旨在拆散这对小夫妻的闹剧上演了。加上两人出身的文化差异,萨拉和汤姆能否在新婚告急时共渡难关?

Video
ID : 1
Format : AVC
Format/Info : Advanced Video Codec
Format profile : [email protected]
Format settings, CABAC : Yes
Format settings, ReFrames : 4 frames
Muxing mode : Header stripping
Codec ID : V_MPEG4/ISO/AVC
Duration : 1 h 34 min
Bit rate : 8 396 kb/s
Width : 1 920 pixels
Height : 1 040 pixels
Display aspect ratio : 1.85:1
Frame rate mode : Constant
Frame rate : 23.976 FPS
Color space : YUV
Chroma subsampling : 4:2:0
Bit depth : 8 bits
Scan type : Progressive
Bits/(Pixel*Frame) : 0.175
Stream size : 5.43 GiB (83%)
Writing library : x264 core 120 r2120 0c7dab9
Encoding settings : cabac=1 / ref=4 / deblock=1:0:0 / analyse=0x3:0x133 / me=umh / subme=7 / psy=1 / psy_rd=1.00:0.00 / mixed_ref=1 / me_range=16 / chroma_me=1 / trellis=1 / 8x8dct=1 / cqm=0 / deadzone=21,11 / fast_pskip=0 / chroma_qp_offset=-2 / threads=12 / sliced_threads=0 / nr=0 / decimate=1 / interlaced=0 / bluray_compat=0 / constrained_intra=0 / bframes=3 / b_pyramid=2 / b_adapt=1 / b_bias=0 / direct=1 / weightb=1 / open_gop=0 / weightp=2 / keyint=250 / keyint_min=23 / scenecut=40 / intra_refresh=0 / rc_lookahead=40 / rc=2pass / mbtree=1 / bitrate=8396 / ratetol=1.0 / qcomp=0.60 / qpmin=0 / qpmax=69 / qpstep=4 / cplxblur=20.0 / qblur=0.5 / ip_ratio=1.40 / aq=1:1.00
Language : English
Default : Yes
Forced : No

Audio
ID : 2
Format : DTS
Format/Info : Digital Theater Systems
Mode : 16
Format settings, Endianness : Big
Muxing mode : Header stripping
Codec ID : A_DTS
Duration : 1 h 34 min
Bit rate mode : Constant
Bit rate : 1 509 kb/s
Channel(s) : 6 channels
Channel positions : Front: L C R, Side: L R, LFE
Sampling rate : 48.0 kHz
Frame rate : 93.750 FPS (512 spf)
Bit depth : 24 bits
Compression mode : Lossy
Stream size : 1 023 MiB (15%)
Default : Yes
Forced : No

Menu
00:00:00.000 : en:00:00:00.000
00:05:57.983 : en:00:05:57.983
00:11:08.126 : en:00:11:08.126
00:13:49.120 : en:00:13:49.120
00:18:25.896 : en:00:18:25.896
00:20:33.190 : en:00:20:33.190
00:24:50.656 : en:00:24:50.656
00:29:46.159 : en:00:29:46.159
00:32:59.394 : en:00:32:59.394
00:36:06.998 : en:00:36:06.998
00:39:41.838 : en:00:39:41.838
00:41:29.779 : en:00:41:29.779
00:44:04.725 : en:00:44:04.725
00:46:36.669 : en:00:46:36.669
00:49:47.818 : en:00:49:47.818
00:53:11.772 : en:00:53:11.772
00:56:13.954 : en:00:56:13.954
00:58:33.552 : en:00:58:33.552
01:00:51.857 : en:01:00:51.857
01:06:06.004 : en:01:06:06.004
01:13:07.633 : en:01:13:07.633
01:15:24.520 : en:01:15:24.520
01:20:15.853 : en:01:20:15.853
01:23:05.105 : en:01:23:05.105
01:24:40.450 : en:01:24:40.450
01:26:57.796 : en:01:26:57.796
01:28:50.575 : en:01:28:50.575
01:31:21.476 : en:01:31:21.476





1 个附件 售价 大小 下载 时间

Just.Married.2003.1080p.BluRay.x264-HD4U.torrent 0 金币 66.07K 413 次 3天前

#1楼
发帖时间:2019-06-13 02:27:20   |   回复数:3
liyouchai
超凡入圣№
谢谢楼主分享资源
3天前 #2楼
911degrees
隐世仙人♂
非常感谢,谢谢分享
3天前 #3楼
kola13
一派掌门
感谢分享
2天前 #4楼
游客组