conanlcg
超级版主

[更 早] [欧美] [剧情] [BD-1080P] 瓶装火箭/瓶子火箭 Bottle.Rocket.1996.1080p.BluRay.x264-SADPANDA 8.74GB

-->

帖子完整标题:瓶装火箭/瓶子火箭 Bottle.Rocket.1996.1080p.BluRay.x264-SADPANDA 8.74GB




◎译  名 瓶装火箭 / 瓶子火箭 / 脱线冲天炮(台)
◎片  名 Bottle Rocket
◎年  代 1996
◎产  地 美国
◎类  别 剧情 / 喜剧 / 犯罪
◎语  言 英语 / 西班牙语
◎上映日期 1996-02-21(美国)
◎IMDb评分 7.0/10 from 64232 users
◎IMDb链接 http://www.imdb.com/title/tt0115734
◎豆瓣评分 7.1/10 from 5863 users
◎豆瓣链接 https://movie.douban.com/subject/1294548/
◎片  长 91分钟
◎导  演 韦斯·安德森 Wes Anderson
◎编  剧 欧文·威尔逊 Owen Wilson / 韦斯·安德森 Wes Anderson
◎主  演 欧文·威尔逊 Owen Wilson
      卢克·威尔逊 Luke Wilson
      罗伯特·马斯格雷夫 Robert Musgrave
      内德·道德 Ned Dowd
      谢伊·福勒 Shea Fowler
      黑莉·米勒 Haley Miller
      安德鲁·威尔逊 Andrew Wilson
      布赖恩·滕博姆 Brian Tenenbaum
      詹妮·图利 Jenni Tooley
      迪帕克·帕拉纳 Dipak Pallana
      达里尔·考克斯 Darryl Cox
      斯蒂芬·迪南 Stephen Dignan
      卢米·卡范佐斯 Lumi Cavazos
      梅林达·雷纳 Melinda Renna
      胡里奥·赛迪罗 Julio Cedillo
      泰迪·威尔逊 Teddy Wilson
      詹姆斯·肯恩 James Caan
      库玛·帕拉纳 Kumar Pallana


◎标  签 美国 | WesAnderson | 韦斯·安德森 | 喜剧 | 1996 | 美国电影 | 独立电影 | 犯罪

◎简  介

  梦想成为了不起的罪犯的迪格南(欧文?威尔逊 Owen Wilson 饰)找来刚结束了精神病院治疗生活的好友安东尼(卢克?威尔逊 Luke Wilson 饰),以及能够充当司机的大麻爱好者鲍勃(Robert Musgrave 饰)组成了一个仓促上马的犯罪团伙。先用偷窃安东尼家来热身的这伙准罪犯们苦练枪法、设计路线,终于成功打劫了一家书店,兴高采烈进入罪犯行列的迪格南等人驾车逃窜,躲入了一家汽车旅馆,安东尼对旅馆的乌拉圭女服务员一见钟情,而鲍勃却因自己兄弟入狱的消息心神不定。在安东尼和服务员的恋情如火如荼之时,鲍勃丢下二人返家,迪格南和安东尼也终于散伙,各自回归了平静生活。然而迪格南仍然没有放弃犯罪之梦,他向自己的偶像——黑道人物亨利求助……

Video
ID : 1
Format : AVC
Format/Info : Advanced Video Codec
Format profile : [email protected]
Format settings, CABAC : Yes
Format settings, ReFrames : 4 frames
Codec ID : V_MPEG4/ISO/AVC
Duration : 1h 31mn
Bit rate : 12.1 Mbps
Width : 1 920 pixels
Height : 1 040 pixels
Display aspect ratio : 1.85:1
Frame rate mode : Constant
Frame rate : 23.976 (24000/1001) fps
Color space : YUV
Chroma subsampling : 4:2:0
Bit depth : 8 bits
Scan type : Progressive
Bits/(Pixel*Frame) : 0.253
Stream size : 7.77 GiB (89%)
Writing library : x264 core 148 r2721 72d53ab
Encoding settings : cabac=1 / ref=4 / deblock=1:-3:-3 / analyse=0x3:0x113 / me=umh / subme=8 / psy=1 / psy_rd=1.00:0.25 / mixed_ref=1 / me_range=24 / chroma_me=1 / trellis=2 / 8x8dct=1 / cqm=0 / deadzone=21,11 / fast_pskip=1 / chroma_qp_offset=-4 / threads=24 / lookahead_threads=4 / sliced_threads=0 / nr=0 / decimate=1 / interlaced=0 / bluray_compat=0 / constrained_intra=0 / bframes=3 / b_pyramid=2 / b_adapt=1 / b_bias=0 / direct=3 / weightb=1 / open_gop=0 / weightp=2 / keyint=240 / keyint_min=24 / scenecut=40 / intra_refresh=0 / rc_lookahead=50 / rc=2pass / mbtree=1 / bitrate=12129 / ratetol=1.0 / qcomp=0.60 / qpmin=0 / qpmax=69 / qpstep=4 / cplxblur=20.0 / qblur=0.5 / ip_ratio=1.40 / aq=1:0.75
Default : Yes
Forced : No

Audio
ID : 2
Format : DTS
Format/Info : Digital Theater Systems
Mode : 16
Format settings, Endianness : Big
Codec ID : A_DTS
Duration : 1h 31mn
Bit rate mode : Constant
Bit rate : 1 509 Kbps
Channel(s) : 6 channels
Channel positions : Front: L C R, Side: L R, LFE
Sampling rate : 48.0 KHz
Frame rate : 93.750 fps (512 spf)
Bit depth : 24 bits
Compression mode : Lossy
Stream size : 990 MiB (11%)
Language : English
Default : Yes
Forced : No

Text #1
ID : 3
Format : UTF-8
Codec ID : S_TEXT/UTF8
Codec ID/Info : UTF-8 Plain Text
Duration : 1h 25mn
Bit rate : 86 bps
Count of elements : 1258
Stream size : 53.9 KiB (0%)
Language : English
Default : No
Forced : No

Text #2
ID : 4
Format : UTF-8
Codec ID : S_TEXT/UTF8
Codec ID/Info : UTF-8 Plain Text
Duration : 1h 27mn
Bit rate : 97 bps
Count of elements : 1416
Stream size : 62.5 KiB (0%)
Title : SDH
Language : English
Default : No
Forced : No

Menu
00:00:00.000 : en:00:00:00.000
00:07:25.195 : en:00:07:25.195
00:13:51.080 : en:00:13:51.080
00:19:44.225 : en:00:19:44.225
00:25:56.889 : en:00:25:56.889
00:35:43.933 : en:00:35:43.933
00:43:31.734 : en:00:43:31.734
00:48:46.215 : en:00:48:46.215
00:54:03.615 : en:00:54:03.615
01:00:07.854 : en:01:00:07.854
01:07:56.823 : en:01:07:56.823
01:12:42.483 : en:01:12:42.483
01:19:49.076 : en:01:19:49.076
01:22:38.704 : en:01:22:38.704
01:27:58.315 : en:01:27:58.315





1 个附件 售价 大小 下载 时间

Bottle.Rocket.1996.1080p.BluRay.x264-SADPANDA.torrent 0 金币 87.99K 455 次 2月前

#1楼
发帖时间:2019-06-13 02:41:18   |   回复数:2
911degrees
隐世仙人♂
非常感谢,谢谢分享
2月前 #2楼
liyouchai
隐世仙人♂
谢谢楼主分享资源
2月前 #3楼
游客组