conanlcg
超级版主

[2013] [欧美] [科幻] [BD-1080P] 黑暗天际/夜凶 Dark.Skies.2013.1080p.BluRay.x264-SPARKS 6.56GB

-->

帖子完整标题:黑暗天际/夜凶 Dark.Skies.2013.1080p.BluRay.x264-SPARKS 6.56GB




◎译  名 黑暗天际 / 夜凶(港) / 天外魔怪 / 幽浮档案
◎片  名 Dark Skies
◎年  代 2013
◎产  地 美国
◎类  别 科幻 / 惊悚 / 恐怖
◎语  言 英语
◎上映日期 2013-02-22(美国)
◎IMDb评分 6.3/10 from 65762 users
◎IMDb链接 http://www.imdb.com/title/tt2387433
◎豆瓣评分 5.9/10 from 4937 users
◎豆瓣链接 https://movie.douban.com/subject/11599239/
◎片  长 97分钟
◎导  演 斯科特·查尔斯·斯图瓦特 Scott Charles Stewart
◎编  剧 斯科特·查尔斯·斯图瓦特 Scott Charles Stewart
◎主  演 凯丽·拉塞尔 Keri Russell
      乔什·汉弥尔顿 Josh Hamilton
      达科塔·高尤 Dakota Goyo
      卡丹·罗凯特 Kadan Rockett
      J·K·西蒙斯 J.K. Simmons
      L·J·贝尼特 L.J. Benet


◎标  签 科幻 | 惊悚 | 美国 | 恐怖 | 外星 | 悬疑 | 2013 | 神秘力量

◎简  介

  美国一处理想中的郊外社区,贝瑞特一家生活于此。女主人莱丝(凯丽·拉塞尔 Keri Russell 饰)美丽端庄,是一名干练的地产中介;男主人丹尼尔(乔什·汉弥尔顿 Josh Hamilton 饰)则正处在事业的瓶颈期,心中充满焦灼和不安。两个儿子杰西(达科塔·高尤 Dakota Goyo 饰)和山姆(卡丹·洛吉特 Kadan Rockett 饰)顽皮可爱,感情笃深。某个夜晚,贝瑞特家通往院子的拉门被打开,冰箱内的食物被人弄得乱七八糟。似乎从这一天起,种种异状便接连在这户人家出现。
小山姆声称有外星人来到家中,但贝瑞特夫妇以及保全人员似乎却将家中一系列事件当作孩子的恶作剧。怪事愈演愈烈,远远超出孩子所能操控的范畴,真相究竟如何……

Video
ID : 1
Format : AVC
Format/Info : Advanced Video Codec
Format profile : [email protected]
Format settings, CABAC : Yes
Format settings, ReFrames : 5 frames
Codec ID : V_MPEG4/ISO/AVC
Duration : 1 h 37 min
Bit rate : 8 157 kb/s
Width : 1 920 pixels
Height : 800 pixels
Display aspect ratio : 2.40:1
Frame rate mode : Constant
Frame rate : 23.976 (24000/1001) FPS
Color space : YUV
Chroma subsampling : 4:2:0
Bit depth : 8 bits
Scan type : Progressive
Bits/(Pixel*Frame) : 0.221
Stream size : 5.40 GiB (82%)
Writing library : x264 core 132 r2310 76a5c3a
Encoding settings : cabac=1 / ref=5 / deblock=1:0:0 / analyse=0x3:0x133 / me=umh / subme=7 / psy=1 / psy_rd=1.00:0.00 / mixed_ref=1 / me_range=16 / chroma_me=1 / trellis=1 / 8x8dct=1 / cqm=0 / deadzone=21,11 / fast_pskip=0 / chroma_qp_offset=-2 / threads=12 / lookahead_threads=2 / sliced_threads=0 / nr=0 / decimate=1 / interlaced=0 / bluray_compat=0 / constrained_intra=0 / bframes=3 / b_pyramid=2 / b_adapt=1 / b_bias=0 / direct=1 / weightb=1 / open_gop=0 / weightp=2 / keyint=250 / keyint_min=23 / scenecut=40 / intra_refresh=0 / rc_lookahead=40 / rc=2pass / mbtree=1 / bitrate=8157 / ratetol=1.0 / qcomp=0.60 / qpmin=0 / qpmax=69 / qpstep=4 / cplxblur=20.0 / qblur=0.5 / ip_ratio=1.40 / aq=1:1.00
Language : English
Default : Yes
Forced : No

Audio
ID : 2
Format : DTS
Format/Info : Digital Theater Systems
Mode : 16
Format settings, Endianness : Big
Codec ID : A_DTS
Duration : 1 h 37 min
Bit rate mode : Constant
Bit rate : 1 509 kb/s
Channel(s) : 6 channels
Channel positions : Front: L C R, Side: L R, LFE
Sampling rate : 48.0 kHz
Frame rate : 93.750 FPS (512 spf)
Bit depth : 24 bits
Compression mode : Lossy
Stream size : 1.02 GiB (16%)
Title : DTS
Language : English
Default : Yes
Forced : No

Text
ID : 3
Format : UTF-8
Codec ID : S_TEXT/UTF8
Codec ID/Info : UTF-8 Plain Text
Title : English SDH
Language : English
Default : No
Forced : No

Menu
00:00:00.000 : en:00:00:00.000
00:04:21.470 : en:00:04:21.470
00:08:22.210 : en:00:08:22.210
00:14:43.716 : en:00:14:43.716
00:18:52.131 : en:00:18:52.131
00:24:34.014 : en:00:24:34.014
00:29:52.916 : en:00:29:52.916
00:36:28.144 : en:00:36:28.144
00:40:32.430 : en:00:40:32.430
00:45:40.404 : en:00:45:40.404
00:52:14.548 : en:00:52:14.548
00:59:41.244 : en:00:59:41.244
01:05:08.196 : en:01:05:08.196
01:11:59.482 : en:01:11:59.482
01:17:07.248 : en:01:17:07.248
01:22:48.172 : en:01:22:48.172
01:29:07.050 : en:01:29:07.050
01:33:03.244 : en:01:33:03.244




#1楼
发帖时间:2019-06-13 04:21:50   |   回复数:4
911degrees
隐世仙人♂
非常感谢,谢谢分享
6天前 #2楼
yangbo83222179
一代宗师
谢谢楼主分享,支持一下
6天前 #3楼
zfdd
武林高手
种子
6天前 #4楼
liyouchai
超凡入圣№
谢谢楼主分享资源
5天前 #5楼
游客组