conanlcg
超级版主

[2009] [香港] [爱情] [BD-1080P] 遊龍戲鳳 Look.For.A.Star.2009.1080p.BluRay.x264-aBD 7.95GB

-->

帖子完整标题:遊龍戲鳳 Look.For.A.Star.2009.1080p.BluRay.x264-aBD 7.95GB




◎译  名 游龙戏凤 / Look For a Star / 星梦奇缘
◎片  名 遊龍戲鳳
◎年  代 2009
◎产  地 香港
◎类  别 爱情
◎语  言 粤语 / 汉语普通话 / 英语
◎上映日期 2009-01-26
◎IMDb评分 5.6/10 from 560 users
◎IMDb链接 http://www.imdb.com/title/tt1312156
◎豆瓣评分 6.0/10 from 60078 users
◎豆瓣链接 https://movie.douban.com/subject/3262939/
◎片  长 117 分钟
◎导  演 刘伟强
◎编  剧 阮世生 / 邓洁明
◎主  演 刘德华 Andy Lau
      舒淇 Hsu Chi
      何韵诗 Wan-Si Ho
      张涵予 Hanyu Zhang
      林嘉华 Dominic Lam
      林子祥 George Lam
      姜大卫 David Chiang
      张歆艺 Xinyi Zhang
      张达明 Tat-Ming Cheung


◎标  签 爱情 | 舒淇 | 刘德华 | 香港电影 | 香港 | 刘伟强 | 游龙戏凤 | 喜剧

◎简  介

  幸福是天上玻璃球的碎片,大家拼命的拾捡,却总归不会完满,爱情就是这种带点缺憾的甜蜜幸福。
程仲森(刘德华饰),亿万富翁,却始终没有找到可以携手白老的心爱之人。已经对爱情死心的他为朋友的爱情出谋划策,自己却对爱情不以为意。可是就在无心之时,他遇到了命中的“白骨精”,舞女米兰。
米兰(舒淇饰),自小与烂赌阿姨、好好姨丈同住。善良独立的她热爱跳舞,把跳舞当成自己的事业更是自己的生活。在一次兼职赌场小姐时,米兰偶遇了“烂赌棍”程仲森。爱情的火花点燃了,可是各种摩擦也随之而来。
与此同时,程仲森的好友们也在捡拾着爱情的幸福碎片,争取着自己的幸福。

◎获奖情况

  第29届香港电影金像奖(2010)
  最佳女主角(提名) 舒淇
  最佳女配角(提名) 何韵诗



Video
ID : 1
Format : AVC
Format/Info : Advanced Video Codec
Format profile : [email protected]
Format settings : CABAC / 5 Ref Frames
Format settings, CABAC : Yes
Format settings, ReFrames : 5 frames
Codec ID : V_MPEG4/ISO/AVC
Duration : 1 h 57 min
Bit rate : 9 069 kb/s
Width : 1 920 pixels
Height : 816 pixels
Display aspect ratio : 2.35:1
Frame rate mode : Constant
Frame rate : 24.000 FPS
Color space : YUV
Chroma subsampling : 4:2:0
Bit depth : 8 bits
Scan type : Progressive
Bits/(Pixel*Frame) : 0.241
Stream size : 7.27 GiB (91%)
Writing library : x264 core 67 r1134M b8808bf
Encoding settings : cabac=1 / ref=5 / deblock=1:-1:-1 / analyse=0x3:0x113 / me=umh / subme=7 / psy_rd=1.0:0.0 / mixed_ref=1 / me_range=16 / chroma_me=1 / trellis=2 / 8x8dct=1 / cqm=0 / deadzone=21,11 / chroma_qp_offset=-2 / threads=6 / nr=0 / decimate=1 / mbaff=0 / bframes=3 / b_pyramid=0 / b_adapt=2 / b_bias=0 / direct=3 / wpredb=1 / keyint=250 / keyint_min=25 / scenecut=40 / rc=2pass / bitrate=9069 / ratetol=1.0 / qcomp=0.60 / qpmin=10 / qpmax=51 / qpstep=4 / cplxblur=20.0 / qblur=0.5 / vbv_maxrate=50000 / vbv_bufsize=50000 / ip_ratio=1.40 / pb_ratio=1.30 / aq=1:1.00
Language : Chinese
Default : Yes
Forced : No

Audio
ID : 2
Format : AC-3
Format/Info : Audio Coding 3
Commercial name : Dolby Digital
Codec ID : A_AC3
Duration : 1 h 57 min
Bit rate mode : Constant
Bit rate : 640 kb/s
Channel(s) : 6 channels
Channel layout : L R C LFE Ls Rs
Sampling rate : 48.0 kHz
Frame rate : 31.250 FPS (1536 SPF)
Bit depth : 16 bits
Compression mode : Lossy
Stream size : 536 MiB (7%)
Language : Chinese
Service kind : Complete Main
Default : Yes
Forced : No

Text
ID : 3
Format : UTF-8
Codec ID : S_TEXT/UTF8
Codec ID/Info : UTF-8 Plain Text
Language : English
Default : Yes
Forced : No





1 个附件 售价 大小 下载 时间

Look.For.A.Star.2009.1080p.BluRay.x264-aBD.torrent 0 金币 40.22K 3367 次 2月前

#1楼
发帖时间:2019-06-13 05:30:21   |   回复数:3
911degrees
隐世仙人♂
非常感谢,谢谢分享
2月前 #2楼
yangbo83222179
一代宗师
谢谢楼主分享,支持一下
2月前 #3楼
liyouchai
隐世仙人♂
谢谢楼主分享资源
2月前 #4楼
游客组