conanlcg
超级版主

[2011] [韩国] [剧情] [BD-1080P] 断箭 Unbowed.2011.1080p.BluRay.x264-GIMCHI 7.65GB

-->

帖子完整标题:断箭 Unbowed.2011.1080p.BluRay.x264-GIMCHI 7.65GB




◎译  名 断箭 / Unbowed / 停职的代价 / 十字弓防战(台) / 折断的箭
◎片  名 ??? ??
◎年  代 2011
◎产  地 韩国
◎类  别 剧情
◎语  言 韩语
◎上映日期 2012-01-18(韩国)
◎IMDb评分 6.8/10 from 512 users
◎IMDb链接 http://www.imdb.com/title/tt2085765
◎豆瓣评分 7.8/10 from 8647 users
◎豆瓣链接 https://movie.douban.com/subject/6829665/
◎片  长 100分钟
◎导  演 郑智泳 Ji-yeong Jeong
◎编  剧 郑智泳 Ji-yeong Jeong
◎主  演 安圣基 Sung-kee Ahn
      朴元尚
      金智昊


◎标  签 韩国 | 法律 | 韩国电影 | 剧情 | 犯罪 | 真实事件改编 | 安圣基 | 2012

◎简  介

  金庆浩(安圣基 饰)本是一名大学的数学教授,却因为直言指出大学入学考试中一道出错的考题间接被学校停职。为此金庆浩多次申诉,希望能恢复自己的职位和名誉,却屡告失败。金庆浩由此心灰意冷离开韩国,在海外进行学术研究直至2006年他回国,再次向韩国高等法院提出诉讼,要求校方恢复他的职称但被判败诉。此时的金庆浩到了极度愤怒的状态,失去理智的他埋伏在案件主审法官的公寓楼道里,预备用石弓袭击法官。法官受伤入院,金庆浩被捕,在媒体的关注下,此次事件被上升为“司法恐怖袭击”。但金京浩对所有指控拒不承认,在他奋力抗争的过程中,这次“弓弩伤人事件”也愈发的扑朔迷离……
电影《断箭》根据2007年在韩国轰动一时的“弓弩伤人事件”改编。

◎获奖情况

  第49届韩国电影大钟奖(2012)
  最佳影片(提名)
  最佳导演(提名) 郑智泳
  最佳男主角(提名) 安圣基



Video
ID : 1
Format : AVC
Format/Info : Advanced Video Codec
Format profile : [email protected]
Format settings : CABAC / 5 Ref Frames
Format settings, CABAC : Yes
Format settings, ReFrames : 5 frames
Codec ID : V_MPEG4/ISO/AVC
Duration : 1 h 42 min
Bit rate : 9 208 kb/s
Width : 1 920 pixels
Height : 824 pixels
Display aspect ratio : 2.35:1
Frame rate mode : Constant
Frame rate : 23.976 (24000/1001) FPS
Color space : YUV
Chroma subsampling : 4:2:0
Bit depth : 8 bits
Scan type : Progressive
Bits/(Pixel*Frame) : 0.243
Stream size : 6.42 GiB (84%)
Writing library : x264 core 142 r2389 956c8d8
Encoding settings : cabac=1 / ref=5 / deblock=1:0:0 / analyse=0x3:0x133 / me=umh / subme=7 / psy=1 / psy_rd=1.00:0.00 / mixed_ref=1 / me_range=16 / chroma_me=1 / trellis=1 / 8x8dct=1 / cqm=0 / deadzone=21,11 / fast_pskip=0 / chroma_qp_offset=-2 / threads=12 / lookahead_threads=2 / sliced_threads=0 / nr=0 / decimate=1 / interlaced=0 / bluray_compat=0 / constrained_intra=0 / bframes=3 / b_pyramid=2 / b_adapt=2 / b_bias=0 / direct=3 / weightb=1 / open_gop=0 / weightp=2 / keyint=240 / keyint_min=23 / scenecut=40 / intra_refresh=0 / rc_lookahead=50 / rc=2pass / mbtree=1 / bitrate=9208 / ratetol=1.0 / qcomp=0.60 / qpmin=0 / qpmax=69 / qpstep=4 / cplxblur=20.0 / qblur=0.5 / ip_ratio=1.40 / aq=1:1.00
Language : English
Default : Yes
Forced : No

Audio
ID : 2
Format : DTS
Format/Info : Digital Theater Systems
Codec ID : A_DTS
Duration : 1 h 42 min
Bit rate mode : Constant
Bit rate : 1 509 kb/s
Channel(s) : 6 channels
Channel layout : C L R Ls Rs LFE
Sampling rate : 48.0 kHz
Frame rate : 93.750 FPS (512 SPF)
Bit depth : 24 bits
Compression mode : Lossy
Stream size : 1.08 GiB (14%)
Language : Korean
Default : Yes
Forced : No

Text
ID : 3
Format : UTF-8
Codec ID : S_TEXT/UTF8
Codec ID/Info : UTF-8 Plain Text
Language : English
Default : No
Forced : No

Menu
00:00:00.000 : en:00:00:00.000
00:03:16.530 : en:00:03:16.530
00:22:37.815 : en:00:22:37.815
00:36:12.921 : en:00:36:12.921
00:57:23.440 : en:00:57:23.440
01:07:16.866 : en:01:07:16.866
01:23:31.298 : en:01:23:31.298
01:37:43.816 : en:01:37:43.816





1 个附件 售价 大小 下载 时间

Unbowed.2011.1080p.BluRay.x264-GIMCHI.torrent 0 金币 38.74K 980 次 3月前

#1楼
发帖时间:2019-06-14 10:00:30   |   回复数:4
jokingcheung
一代宗师
谢谢分享
3月前 #2楼
911degrees
隐世仙人♂
非常感谢,谢谢分享
3月前 #3楼
liyouchai
隐世仙人♂
谢谢楼主分享资源
3月前 #4楼
tanchoohoon
武林盟主
感谢楼主的无私分享
3月前 #5楼
游客组