conanlcg
超级版主

[2014] [其他] [动作] [BD-1080P] 金色手杖战士 The.Golden.Cane.Warrior.2014.1080p.BluRay.x264-ROVERS 7.94GB

-->

帖子完整标题:金色手杖战士 The.Golden.Cane.Warrior.2014.1080p.BluRay.x264-ROVERS 7.94GB




◎译  名 金色手杖战士 / The Golden Cane Warrior
◎片  名 Pendekar Tongkat Emas
◎年  代 2014
◎产  地 印尼
◎类  别 动作
◎语  言 印尼语
◎上映日期 2014-12-18(印尼)
◎IMDb评分 6.3/10 from 682 users
◎IMDb链接 http://www.imdb.com/title/tt4235342
◎豆瓣评分 5.7/10 from 120 users
◎豆瓣链接 https://movie.douban.com/subject/26425490/
◎片  长 112分钟
◎导  演 Ifa Isfansyah
◎编  剧 Ifa Isfansyah
◎主  演 Tara Basro
      克里斯汀·哈金 Christine Hakim
      尼古拉斯·沙普泰拉 Nicholas Saputra
      Eva Celia Latjuba
      Reza Rahadian


◎标  签 动作 | 印尼 | 印度尼西亚电影 | 2014 | 武侠 | 印度 | 印度尼西亚 | 2015

◎简  介

  Cempaka是一位武术大师,有“金色手杖战士”之称。她有4个弟子,分别是Biru、Gerhana、Dara Angin。他们都是过去她对手的孩子,她打算将其终极武艺——金色手杖传给其中一个弟子。
最终,她选择了Dara作为继承人,成为金色手杖战士。虽然Dara一开始对继承金色手杖非常不安,但最终战胜自己,成为一名出色的金色手杖战士。

Video
ID : 1
Format : AVC
Format/Info : Advanced Video Codec
Format profile : [email protected]
Format settings : CABAC / 5 Ref Frames
Format settings, CABAC : Yes
Format settings, ReFrames : 5 frames
Codec ID : V_MPEG4/ISO/AVC
Duration : 1 h 51 min
Bit rate : 8 729 kb/s
Width : 1 920 pixels
Height : 800 pixels
Display aspect ratio : 2.40:1
Frame rate mode : Constant
Frame rate : 24.000 FPS
Color space : YUV
Chroma subsampling : 4:2:0
Bit depth : 8 bits
Scan type : Progressive
Bits/(Pixel*Frame) : 0.237
Stream size : 6.77 GiB (85%)
Writing library : x264 core 148 r2597 e86f3a1
Encoding settings : cabac=1 / ref=5 / deblock=1:0:0 / analyse=0x3:0x133 / me=umh / subme=7 / psy=1 / psy_rd=1.00:0.00 / mixed_ref=1 / me_range=16 / chroma_me=1 / trellis=1 / 8x8dct=1 / cqm=0 / deadzone=21,11 / fast_pskip=0 / chroma_qp_offset=-2 / threads=18 / lookahead_threads=3 / sliced_threads=0 / nr=0 / decimate=1 / interlaced=0 / bluray_compat=0 / constrained_intra=0 / bframes=3 / b_pyramid=2 / b_adapt=1 / b_bias=0 / direct=1 / weightb=1 / open_gop=0 / weightp=2 / keyint=250 / keyint_min=23 / scenecut=40 / intra_refresh=0 / rc_lookahead=40 / rc=2pass / mbtree=1 / bitrate=8729 / ratetol=1.0 / qcomp=0.60 / qpmin=0 / qpmax=69 / qpstep=4 / cplxblur=20.0 / qblur=0.5 / ip_ratio=1.40 / aq=1:1.00
Language : Indonesian
Default : Yes
Forced : No

Audio
ID : 2
Format : DTS
Format/Info : Digital Theater Systems
Codec ID : A_DTS
Duration : 1 h 51 min
Bit rate mode : Constant
Bit rate : 1 509 kb/s
Channel(s) : 6 channels
Channel layout : C L R Ls Rs LFE
Sampling rate : 48.0 kHz
Frame rate : 93.750 FPS (512 SPF)
Bit depth : 24 bits
Compression mode : Lossy
Stream size : 1.17 GiB (15%)
Default : Yes
Forced : No

Text
ID : 3
Format : UTF-8
Codec ID : S_TEXT/UTF8
Codec ID/Info : UTF-8 Plain Text
Duration : 1 h 44 min
Bit rate : 21 b/s
Count of elements : 508
Stream size : 16.5 KiB (0%)
Title : English
Language : English
Default : Yes
Forced : Yes

Menu
00:00:00.000 : en:00:00:00.000
00:09:27.458 : en:00:09:27.458
00:17:34.167 : en:00:17:34.167
00:23:35.708 : en:00:23:35.708
00:33:56.750 : en:00:33:56.750
00:43:22.042 : en:00:43:22.042
00:56:35.542 : en:00:56:35.542
01:03:39.792 : en:01:03:39.792
01:14:50.792 : en:01:14:50.792
01:25:14.042 : en:01:25:14.042
01:39:43.042 : en:01:39:43.042
01:45:22.042 : en:01:45:22.042





1 个附件 售价 大小 下载 时间

The.Golden.Cane.Warrior.2014.1080p.BluRay.x264-ROVERS.torrent 0 金币 40.23K 406 次 2月前

#1楼
发帖时间:2019-06-14 10:02:35   |   回复数:2
911degrees
隐世仙人♂
非常感谢,谢谢分享
2月前 #2楼
liyouchai
隐世仙人♂
谢谢楼主分享资源
2月前 #3楼
游客组