conanlcg
超级版主

[2011] [欧美] [喜剧] [BD-1080P] 猪头逛大街3 A.Very.Harold.And.Kumar.Christmas.2011.EXTENDED.1080p.BluRay.x264-REACTOR

-->

帖子完整标题:猪头逛大街3 A.Very.Harold.And.Kumar.Christmas.2011.EXTENDED.1080p.BluRay.x264-REACTOR 6.56GB




◎译  名 猪头逛大街3 / Harold & Kumar 3 / 寻堡奇遇3 / 猪头汉堡包3 / 猪头逛大街3:圣诞大电影
◎片  名 A Very Harold & Kumar 3D Christmas
◎年  代 2011
◎产  地 美国
◎类  别 喜剧 / 冒险
◎语  言 英语
◎上映日期 2011-11-04(美国)
◎IMDb评分 6.3/10 from 62163 users
◎IMDb链接 http://www.imdb.com/title/tt1268799
◎豆瓣评分 6.5/10 from 5197 users
◎豆瓣链接 https://movie.douban.com/subject/3166574/
◎片  长 90分钟
◎导  演 托德·施特劳斯-斯古尔森 Todd Strauss-Schulson
◎编  剧 乔恩·赫维兹 Jon Hurwitz / 海登·施拉兹伯格 Hayden Schlossberg
◎主  演 卡尔·潘 Kal Penn
      约翰·赵 John Cho
      尼尔·帕特里克·哈里斯 Neil Patrick Harris
      帕顿·奥斯瓦尔特 Patton Oswalt
      Isabella Gielniak
      Bobby Lee
      鲍拉·加茜丝 Paula Garcés


◎标  签 喜剧 | 美国 | 搞笑 | 恶搞 | 美国电影 | 2011 | 电影 | 青春

◎简  介

  遥想上一次惊心动魄的冒险已经远在六年之前,如今的哈罗德(约翰·赵 John Cho 饰)和卡玛(卡尔·潘 Kal Penn 饰)也已各自过上安定的生活,哈罗德成为了华尔街一名有为商人并已结婚,而卡玛还依旧住在当年和哈罗德合租的旧公寓。眼看圣诞将至,哈罗德的父亲和岳父决定前来一起过节,岳父还特地带来了他最钟意的一棵圣诞树。一天,卡玛收到一个写着哈罗德名字的包裹,他决意上门将其交给哈罗德,然而意想不到的事发生了,两人竟然无意中烧毁了岳父的圣诞树,为了在岳父发现之前找到一棵以假乱真的替代品,他们再次走上纽约街头,不过依二人的一贯作风,这次的寻找圣诞树之旅,恐怕又要发展成一次怪事不断高潮迭起的疯狂冒险了……
本片为系列喜剧《寻堡奇遇》第三集。

Video
ID : 1
Format : AVC
Format/Info : Advanced Video Codec
Format profile : [email protected]
Format settings : CABAC / 5 Ref Frames
Format settings, CABAC : Yes
Format settings, ReFrames : 5 frames
Codec ID : V_MPEG4/ISO/AVC
Duration : 1 h 36 min
Bit rate : 9 308 kb/s
Width : 1 920 pixels
Height : 800 pixels
Display aspect ratio : 2.40:1
Frame rate mode : Constant
Frame rate : 23.976 (24000/1001) FPS
Color space : YUV
Chroma subsampling : 4:2:0
Bit depth : 8 bits
Scan type : Progressive
Bits/(Pixel*Frame) : 0.253
Stream size : 6.13 GiB (93%)
Writing library : x264 core 142 r2453 ea0ca51
Encoding settings : cabac=1 / ref=5 / deblock=1:0:0 / analyse=0x3:0x113 / me=umh / subme=8 / psy=1 / psy_rd=1.00:0.00 / mixed_ref=1 / me_range=16 / chroma_me=1 / trellis=1 / 8x8dct=1 / cqm=0 / deadzone=21,11 / fast_pskip=1 / chroma_qp_offset=-2 / threads=12 / lookahead_threads=2 / sliced_threads=0 / nr=0 / decimate=1 / interlaced=0 / bluray_compat=0 / constrained_intra=0 / bframes=3 / b_pyramid=2 / b_adapt=2 / b_bias=0 / direct=3 / weightb=1 / open_gop=0 / weightp=2 / keyint=240 / keyint_min=24 / scenecut=40 / intra_refresh=0 / rc_lookahead=50 / rc=2pass / mbtree=1 / bitrate=9308 / ratetol=1.0 / qcomp=0.60 / qpmin=0 / qpmax=69 / qpstep=4 / cplxblur=20.0 / qblur=0.5 / ip_ratio=1.40 / aq=1:1.00
Default : Yes
Forced : No

Audio
ID : 2
Format : AC-3
Format/Info : Audio Coding 3
Commercial name : Dolby Digital
Codec ID : A_AC3
Duration : 1 h 36 min
Bit rate mode : Constant
Bit rate : 448 kb/s
Channel(s) : 6 channels
Channel layout : L R C LFE Ls Rs
Sampling rate : 48.0 kHz
Frame rate : 31.250 FPS (1536 SPF)
Bit depth : 16 bits
Compression mode : Lossy
Stream size : 308 MiB (5%)
Language : English
Service kind : Complete Main
Default : Yes
Forced : No

Text
ID : 3
Format : UTF-8
Codec ID : S_TEXT/UTF8
Codec ID/Info : UTF-8 Plain Text
Language : English
Default : No
Forced : No

Menu
00:00:00.000 : en:00:00:00.000
00:11:20.013 : en:00:11:20.013
00:24:04.568 : en:00:24:04.568
00:33:33.970 : en:00:33:33.970
00:42:08.443 : en:00:42:08.443
00:54:14.501 : en:00:54:14.501
01:06:43.708 : en:01:06:43.708
01:15:33.738 : en:01:15:33.738
01:27:54.644 : en:01:27:54.644





1 个附件 售价 大小 下载 时间

A.Very.Harold.And.Kumar.Christmas.2011.EXTENDED.1080p.BluRay.x264-REACTOR.torrent 0 金币 33.38K 350 次 3月前

#1楼
发帖时间:2019-06-14 10:24:58   |   回复数:2
911degrees
隐世仙人♂
非常感谢,谢谢分享
3月前 #2楼
liyouchai
隐世仙人♂
谢谢楼主分享资源
3月前 #3楼
游客组