conanlcg
超级版主

[2011] [欧美] [剧情] [BD-1080P] 迷踪:第九鹰团 The.Eagle.2011.1080p.BluRay.x264.DTS-FGT 9.50GB

-->

帖子完整标题:迷踪:第九鹰团 The.Eagle.2011.1080p.BluRay.x264.DTS-FGT 9.50GB




◎译  名 迷踪:第九鹰团 / The Eagle of the Ninth / 不败雄鹰(港) / 失踪的第九军团 / 帝国战记(台) / 第九只鹰
◎片  名 The Eagle
◎年  代 2011
◎产  地 美国
◎类  别 剧情
◎语  言 英语 / 苏格兰盖立语
◎上映日期 2011-02-11(美国) / 2011-04-29(中国大陆)
◎IMDb评分 6.2/10 from 61492 users
◎IMDb链接 http://www.imdb.com/title/tt1034389
◎豆瓣评分 6.3/10 from 8359 users
◎豆瓣链接 https://movie.douban.com/subject/3078521/
◎片  长 114分钟
◎导  演 凯文·麦克唐纳 Kevin Macdonald
◎编  剧 Jeremy Brock
◎主  演 查宁·塔图姆 Channing Tatum
      马克·斯特朗 2 Mark Strong
      杰米·贝尔 Jamie Bell
      唐纳德·萨瑟兰 Donald Sutherland
      塔哈·拉希姆 Tahar Rahim
      István G?z
      Bence Ger?
      丹尼斯·欧哈拉 Denis O'Hare
      Paul Ritter
      Zsolt László
      Julian Lewis Jones
      Aladár Laklóth


◎标  签 战争 | 美国 | 美国电影 | 动作 | 剧情 | 2011 | ChanningTatum | JamieBell

◎简  介

  20年前,强盛的罗马帝国派出由5000精兵组成的罗马第九军团,却在苏格兰高地神秘消失。第九军团首领之子马库斯(查宁·塔图姆 Channing Tatum 饰)骁勇善战,带兵征战在前线。因为在一场战争中严重受伤,他不得不在叔叔家中养伤。养伤期间,马库斯在角斗场中救下一名奴隶埃斯科(杰米·贝尔 Jamie Bell 饰),并将其收为仆人。不久之后,马库斯听闻北方一个部落有人发现了当年父亲遗失的鹰杖,立志为父亲赢回荣誉的他决心远赴北方拿回鹰杖。马库斯带着对北方环境比较熟悉的埃斯科一起出发。路途中主仆二人的关系经历了各种起伏与相互考验。尤其是当他们遇到凶狠的西尔王子(塔哈·拉希姆 Tahar Rahim 饰)后,马库斯发现埃斯科的身份远远不只是个普通的奴隶那么简单。究竟谁掌控着鹰杖,当年的第九军团是如何覆灭的?真相愈加扑朔迷离……

Video
ID : 1
Format : AVC
Format/Info : Advanced Video Codec
Format profile : [email protected]
Format settings, CABAC : Yes
Format settings, ReFrames : 5 frames
Codec ID : V_MPEG4/ISO/AVC
Duration : 1h 54mn
Bit rate : 10.4 Mbps
Width : 1 920 pixels
Height : 816 pixels
Display aspect ratio : 2.35:1
Frame rate mode : Constant
Frame rate : 23.976 fps
Color space : YUV
Chroma subsampling : 4:2:0
Bit depth : 8 bits
Scan type : Progressive
Bits/(Pixel*Frame) : 0.277
Stream size : 8.11 GiB (85%)
Writing library : x264 core 114 r1924 08d04a4
Encoding settings : cabac=1 / ref=5 / deblock=1:-3:-3 / analyse=0x3:0x113 / me=umh / subme=10 / psy=1 / psy_rd=1.05:0.10 / mixed_ref=1 / me_range=32 / chroma_me=1 / trellis=2 / 8x8dct=1 / cqm=2 / deadzone=21,11 / fast_pskip=0 / chroma_qp_offset=-2 / threads=12 / sliced_threads=0 / nr=0 / decimate=1 / interlaced=0 / constrained_intra=0 / bframes=6 / b_pyramid=2 / b_adapt=2 / b_bias=0 / direct=3 / weightb=1 / open_gop=0 / weightp=2 / keyint=250 / keyint_min=23 / scenecut=40 / intra_refresh=0 / rc_lookahead=50 / rc=2pass / mbtree=1 / bitrate=10402 / ratetol=1.0 / qcomp=0.60 / qpmin=1 / qpmax=63 / qpstep=4 / cplxblur=20.0 / qblur=0.5 / vbv_maxrate=40000 / vbv_bufsize=40000 / nal_hrd=none / ip_ratio=1.40 / aq=2:0.80
Language : English
Default : No
Forced : No

Audio
ID : 2
Format : DTS
Format/Info : Digital Theater Systems
Mode : 16
Format settings, Endianness : Big
Codec ID : A_DTS
Duration : 1h 54mn
Bit rate mode : Constant
Bit rate : 1 509 Kbps
Channel(s) : 6 channels
Channel positions : Front: L C R, Side: L R, LFE
Sampling rate : 48.0 KHz
Frame rate : 93.750 fps (512 spf)
Bit depth : 24 bits
Compression mode : Lossy
Stream size : 1.20 GiB (13%)
Language : English
Default : Yes
Forced : No

Text
ID : 3
Format : UTF-8
Codec ID : S_TEXT/UTF8
Codec ID/Info : UTF-8 Plain Text
Language : English
Default : No
Forced : No





1 个附件 售价 大小 下载 时间

The.Eagle.2011.1080p.BluRay.x264.DTS-FGT.torrent 0 金币 95.57K 637 次 1月前

#1楼
发帖时间:2019-06-14 10:34:45   |   回复数:2
911degrees
隐世仙人♂
非常感谢,谢谢分享
1月前 #2楼
liyouchai
隐世仙人♂
谢谢楼主分享资源
1月前 #3楼
游客组