conanlcg
超级版主

[2011] [其他] [剧情] [BD-1080P] 外星人 Extraterrestrial.2011.SPANISH.1080p.BluRay.x264.DTS-FGT 8.11GB

-->

帖子完整标题:外星人 Extraterrestrial.2011.SPANISH.1080p.BluRay.x264.DTS-FGT 8.11GB




◎译  名 外星人 / Extraterrestrial / 外星人来了
◎片  名 Extraterrestre
◎年  代 2011
◎产  地 西班牙
◎类  别 剧情 / 喜剧 / 科幻
◎语  言 西班牙语
◎上映日期 2011
◎IMDb评分 5.8/10 from 3626 users
◎IMDb链接 http://www.imdb.com/title/tt1680133
◎豆瓣评分 5.5/10 from 265 users
◎豆瓣链接 https://movie.douban.com/subject/5294308/
◎片  长 94分钟
◎导  演 那奇欧·维加隆多 Nacho Vigalondo
◎编  剧 那奇欧·维加隆多 Nacho Vigalondo
◎主  演 米歇尔·珍娜 Michelle Jenner
      Carlos Areces
      Julián Villagrán


◎标  签 西班牙 | 科幻 | 喜剧 | 西班牙电影 | 剧情 | 爱情 | 2011 | NachoVigalondo

◎简  介

  西班牙某城市。结束了前一夜的纵情欢愉,名叫朱里奥(朱里安·维拉格兰 Julián Villagrán 饰)的男人从睡梦中醒来,见到了眼前这个与之共享鱼水之欢的陌生女子朱莉娅(米歇尔·珍娜 Michelle Jenner 饰)。一番尴尬的交谈过后,二人却发现周围有些异样,白日的街道上空无一人,电视信号和网络全部中断。从广播中听说,似乎有外星人入侵地球,硕大的飞碟盘旋上空,人们皆仓皇地从城中撤离。不久,朱莉娅的邻居安吉尔(Carlos Areces 饰)和男朋友卡洛斯(Raúl Cimas 饰)相继加入进来,奇怪的氛围在四人之间蔓延,谎言与私欲让他们开始猜测有外星人混在了他们中间……
本片荣获2011年奇幻电影节评委会奖最佳男主角奖(Julián Villagrán)。

◎获奖情况

  第16届富川国际奇幻电影节(2012)
  富川选择奖(长片) 最佳影片(提名) 那奇欧·维加隆多



Video
ID : 1
Format : AVC
Format/Info : Advanced Video Codec
Format profile : [email protected]
Format settings : CABAC / 5 Ref Frames
Format settings, CABAC : Yes
Format settings, ReFrames : 5 frames
Codec ID : V_MPEG4/ISO/AVC
Duration : 1 h 30 min
Bit rate : 11.2 Mb/s
Width : 1 920 pixels
Height : 816 pixels
Display aspect ratio : 2.35:1
Frame rate mode : Constant
Frame rate : 25.000 FPS
Color space : YUV
Chroma subsampling : 4:2:0
Bit depth : 8 bits
Scan type : Progressive
Bits/(Pixel*Frame) : 0.287
Stream size : 7.14 GiB (88%)
Title : Extraterrestrial.2011.SPANISH.1080p.BluRay.x264.DTS-FGT
Writing library : x264 core 148 r2708 86b7198
Encoding settings : cabac=1 / ref=5 / deblock=1:-3:-3 / analyse=0x3:0x133 / me=umh / subme=9 / psy=1 / psy_rd=1.00:0.00 / mixed_ref=1 / me_range=24 / chroma_me=1 / trellis=2 / 8x8dct=1 / cqm=0 / deadzone=21,11 / fast_pskip=0 / chroma_qp_offset=-2 / threads=6 / lookahead_threads=1 / sliced_threads=0 / nr=0 / decimate=1 / interlaced=0 / bluray_compat=0 / constrained_intra=0 / bframes=6 / b_pyramid=2 / b_adapt=2 / b_bias=0 / direct=3 / weightb=1 / open_gop=0 / weightp=2 / keyint=250 / keyint_min=25 / scenecut=40 / intra_refresh=0 / rc_lookahead=60 / rc=crf / mbtree=1 / crf=12.0 / qcomp=0.60 / qpmin=0 / qpmax=69 / qpstep=4 / vbv_maxrate=62500 / vbv_bufsize=78125 / crf_max=0.0 / nal_hrd=none / filler=0 / ip_ratio=1.40 / aq=1:1.00
Default : Yes
Forced : No
Color range : Limited
Color primaries : BT.709
Transfer characteristics : BT.709
Matrix coefficients : BT.709

Audio
ID : 2
Format : DTS
Format/Info : Digital Theater Systems
Codec ID : A_DTS
Duration : 1 h 31 min
Bit rate mode : Constant
Bit rate : 1 509 kb/s
Channel(s) : 6 channels
Channel layout : C L R Ls Rs LFE
Sampling rate : 48.0 kHz
Frame rate : 93.750 FPS (512 SPF)
Bit depth : 24 bits
Compression mode : Lossy
Stream size : 990 MiB (12%)
Title : Extraterrestrial.2011.SPANISH.1080p.BluRay.x264.DTS-FGT
Language : Spanish
Default : Yes
Forced : No

Text
ID : 3
Format : UTF-8
Codec ID : S_TEXT/UTF8
Codec ID/Info : UTF-8 Plain Text
Duration : 1 h 27 min
Bit rate : 48 b/s
Count of elements : 1089
Stream size : 31.3 KiB (0%)
Language : English
Default : Yes
Forced : No

Menu
00:00:00.000 : :00:00:00.000
00:01:10.480 : :00:01:10.480
00:07:53.000 : :00:07:53.000
00:15:05.800 : :00:15:05.800
00:22:00.040 : :00:22:00.000
00:28:42.560 : :00:28:42.560
00:36:19.680 : :00:36:19.680
00:41:26.080 : :00:41:26.080
00:49:19.960 : :00:49:19.920
00:56:46.040 : :00:56:46.040
01:01:39.280 : :01:01:39.200
01:08:22.480 : :01:08:22.480
01:15:09.320 : :01:15:09.320





1 个附件 售价 大小 下载 时间

Extraterrestrial.2011.SPANISH.1080p.BluRay.x264.DTS-FGT.torrent 0 金币 41.08K 448 次 3月前

#1楼
发帖时间:2019-06-15 02:17:51   |   回复数:2
911degrees
隐世仙人♂
非常感谢,谢谢分享
3月前 #2楼
liyouchai
隐世仙人♂
谢谢楼主分享资源
3月前 #3楼
游客组