conanlcg
超级版主

[2011] [其他] [其他] [BD-1080P] 墓地邂逅/逃离墓地 Grave.Encounters.2011.1080p.BluRay.X264-7SinS 6.56GB

-->

帖子完整标题:墓地邂逅/逃离墓地 Grave.Encounters.2011.1080p.BluRay.X264-7SinS 6.56GB




◎译  名 墓地邂逅 / 逃离墓地 / 遇见亡灵
◎片  名 Grave Encounters
◎年  代 2011
◎产  地 加拿大
◎类  别 悬疑 / 恐怖
◎语  言 英语
◎上映日期 2011-04-22(美国) / 2011-06-01(意大利)
◎IMDb评分 6.1/10 from 48174 users
◎IMDb链接 http://www.imdb.com/title/tt1703199
◎豆瓣评分 6.7/10 from 9277 users
◎豆瓣链接 https://movie.douban.com/subject/5384590/
◎片  长 92分钟
◎导  演 The Vicious Brothers
◎编  剧 The Vicious Brothers
◎主  演 麦肯锡·葛雷 Mackenzie Gray
      胡安·雷丁格尔 Juan Riedinger
      默温·蒙德瑟 Merwin Mondesir
      肖恩·罗格森 Sean Rogerson
      本·威尔金森 Ben Wilkinson
      Ashleigh Gryzko


◎标  签 恐怖 | 伪纪录片 | 加拿大 | 灵异 | 悬疑 | 鬼片 | 血腥 | 绝望

◎简  介

  电视台制作人杰瑞?哈尔福德与信心满满的青年兰斯?普雷斯顿(辛恩·罗格斯 Sean Rogerson 饰)合作,制作了一档名为《墓地邂逅》的灵异纪实节目,他自称年少时曾遭遇超自然现象,所以长久以来一直致力于揭示灵魂的真面目。此次,他和他的团队来到了一家始建于1893年的医院——科林伍德精神病院,该医院曾受纳上千名病患,1963年因闹鬼被迫关闭。兰斯团队决定将自己反锁在医院8小时,通过摄像机以及其他高精仪器寻找鬼魂的蛛丝马迹。
为了制造恐怖氛围,兰斯不惜弄虚作假,可是他很快发现这座医院真的有什么东西存在,他们将面临最为恐怖与难熬的不眠之夜……

Video
ID : 1
Format : AVC
Format/Info : Advanced Video Codec
Format profile : [email protected]
Format settings, CABAC : Yes
Format settings, ReFrames : 4 frames
Codec ID : V_MPEG4/ISO/AVC
Duration : 1 h 33 min
Bit rate : 8 547 kb/s
Width : 1 920 pixels
Height : 1 080 pixels
Display aspect ratio : 16:9
Frame rate mode : Constant
Frame rate : 23.976 (24000/1001) FPS
Original frame rate : 23.976 (23976/1000) FPS
Color space : YUV
Chroma subsampling : 4:2:0
Bit depth : 8 bits
Scan type : Progressive
Bits/(Pixel*Frame) : 0.172
Stream size : 5.45 GiB (83%)
Writing library : x264 core 125 r2208 d9d2288
Encoding settings : cabac=1 / ref=4 / deblock=1:0:0 / analyse=0x3:0x133 / me=umh / subme=7 / psy=1 / psy_rd=1.00:0.00 / mixed_ref=1 / me_range=16 / chroma_me=1 / trellis=1 / 8x8dct=1 / cqm=0 / deadzone=21,11 / fast_pskip=0 / chroma_qp_offset=-2 / threads=12 / lookahead_threads=2 / sliced_threads=0 / nr=0 / decimate=1 / interlaced=0 / bluray_compat=0 / constrained_intra=0 / bframes=3 / b_pyramid=2 / b_adapt=2 / b_bias=0 / direct=3 / weightb=1 / open_gop=0 / weightp=2 / keyint=250 / keyint_min=23 / scenecut=40 / intra_refresh=0 / rc_lookahead=50 / rc=2pass / mbtree=1 / bitrate=8547 / ratetol=1.0 / qcomp=0.60 / qpmin=0 / qpmax=69 / qpstep=4 / cplxblur=20.0 / qblur=0.5 / ip_ratio=1.40 / aq=1:1.00
Language : English
Default : Yes
Forced : No

Audio
ID : 2
Format : DTS
Format/Info : Digital Theater Systems
Mode : 16
Format settings, Endianness : Big
Codec ID : A_DTS
Duration : 1 h 33 min
Bit rate mode : Constant
Bit rate : 1 509 kb/s
Channel(s) : 6 channels
Channel positions : Front: L C R, Side: L R, LFE
Sampling rate : 48.0 kHz
Frame rate : 93.750 FPS (512 spf)
Bit depth : 24 bits
Compression mode : Lossy
Stream size : 1 008 MiB (15%)
Language : English
Default : Yes
Forced : No





1 个附件 售价 大小 下载 时间

Grave.Encounters.2011.1080p.BluRay.X264-7SinS.torrent 0 金币 66.14K 448 次 1月前

#1楼
发帖时间:2019-06-16 18:34:33   |   回复数:2
liyouchai
隐世仙人♂
谢谢楼主分享资源
1月前 #2楼
911degrees
隐世仙人♂
非常感谢,谢谢分享
1月前 #3楼
游客组