conanlcg
超级版主

[2010] [其他] [剧情] [BD-1080P] 遭遇陌生人/命中注定遇见爱 You.Will.Meet.A.Tall.Dark.Stranger.2010.1080p.BluRay.x264-Japhson

-->

帖子完整标题:遭遇陌生人/命中注定遇见爱 You.Will.Meet.A.Tall.Dark.Stranger.2010.1080p.BluRay.x264-Japhson 6.55GB




◎译  名 遭遇陌生人 / 命中注定,遇见爱(台) / 遇上陌生情人
◎片  名 You Will Meet A Tall Dark Stranger
◎年  代 2010
◎产  地 美国 / 西班牙
◎类  别 剧情 / 喜剧 / 爱情
◎语  言 英语 / 西班牙语
◎上映日期 2010-05-15(戛纳电影节)
◎IMDb评分 6.3/10 from 41621 users
◎IMDb链接 http://www.imdb.com/title/tt1182350
◎豆瓣评分 7.3/10 from 14249 users
◎豆瓣链接 https://movie.douban.com/subject/2997063/
◎片  长 98分钟
◎导  演 伍迪·艾伦 Woody Allen
◎编  剧 伍迪·艾伦 Woody Allen
◎主  演 安东尼·霍普金斯 Anthony Hopkins
      乔什·布洛林 Josh Brolin
      娜奥米·沃茨 Naomi Watts
      安东尼奥·班德拉斯 Antonio Banderas
      芙蕾达·平托 Freida Pinto
      艾文·布莱纳 Ewen Bremner
      露茜·彭奇 Lucy Punch
      盖玛·琼斯 Gemma Jones


◎标  签 伍迪·艾伦 | 美国 | 2010 | 剧情 | 爱情 | 喜剧 | 文艺 | 人生

◎简  介

  在共同度过了40年平静的婚姻生活后,阿尔菲(安东尼·霍普金斯 Anthony Hopkins 饰)突然决定离开妻子海伦娜(盖玛·琼斯 Gemma Jones 饰),转而投向和自己年龄差距极大的应召女郎查梅尼(露茜·彭奇 Lucy Punch 饰)的怀抱。在巨大的打击之下,海伦的精神开始崩溃,她选择了自我麻醉的手段,将意识和身体全部托付给了一个神神叨叨的算命师,唯命是从。
父母的婚变让身为女儿的莎莉(娜奥米·沃茨 Naomi Watts 饰)感到十分的头痛,同时,她和丈夫罗伊(乔什·布洛林 Josh Brolin 饰)的婚姻也出现了问题,莎莉爱上了其他的人。巧的是,同样的情况也出现在了罗伊的身上,并且,对于一个半红不紫的小说作者来说,还能有什么事情要比发现自己的死党拥有着高出自己千百倍的创作天赋更令人沮丧的呢?几乎完全相同的故事发生在了两代人之间,此时此刻,除了直面自己的处境,他们没有更好的选择。

Video
ID : 1
Format : AVC
Format/Info : Advanced Video Codec
Format profile : [email protected]
Format settings : CABAC / 4 Ref Frames
Format settings, CABAC : Yes
Format settings, ReFrames : 4 frames
Codec ID : V_MPEG4/ISO/AVC
Duration : 1 h 38 min
Bit rate : 8 013 kb/s
Width : 1 920 pixels
Height : 1 080 pixels
Display aspect ratio : 16:9
Frame rate mode : Constant
Frame rate : 23.976 (24000/1001) FPS
Color space : YUV
Chroma subsampling : 4:2:0
Bit depth : 8 bits
Scan type : Progressive
Bits/(Pixel*Frame) : 0.161
Stream size : 5.39 GiB (82%)
Writing library : x264 core 112 r1867 22bfd31
Encoding settings : cabac=1 / ref=4 / deblock=1:-1:-1 / analyse=0x3:0x113 / me=umh / subme=7 / psy=1 / psy_rd=1.00:0.00 / mixed_ref=1 / me_range=16 / chroma_me=1 / trellis=1 / 8x8dct=1 / cqm=0 / deadzone=21,11 / fast_pskip=1 / chroma_qp_offset=-2 / threads=12 / sliced_threads=0 / nr=0 / decimate=1 / interlaced=0 / constrained_intra=0 / bframes=3 / b_pyramid=2 / b_adapt=2 / b_bias=0 / direct=3 / weightb=1 / open_gop=0 / weightp=2 / keyint=250 / keyint_min=23 / scenecut=40 / intra_refresh=0 / rc_lookahead=40 / rc=2pass / mbtree=1 / bitrate=8013 / ratetol=1.0 / qcomp=0.60 / qpmin=0 / qpmax=51 / qpstep=4 / cplxblur=20.0 / qblur=0.5 / vbv_maxrate=50000 / vbv_bufsize=50000 / nal_hrd=none / ip_ratio=1.40 / aq=1:1.00
Language : English
Default : Yes
Forced : Yes

Audio
ID : 2
Format : DTS
Format/Info : Digital Theater Systems
Codec ID : A_DTS
Duration : 1 h 38 min
Bit rate mode : Constant
Bit rate : 1 509 kb/s
Channel(s) : 3 channels
Channel layout : C L R
Sampling rate : 48.0 kHz
Frame rate : 93.750 FPS (512 SPF)
Bit depth : 24 bits
Compression mode : Lossy
Stream size : 1.04 GiB (16%)
Language : English
Default : Yes
Forced : Yes

Text
ID : 3
Format : UTF-8
Codec ID : S_TEXT/UTF8
Codec ID/Info : UTF-8 Plain Text
Language : English
Default : Yes
Forced : No





1 个附件 售价 大小 下载 时间

You.Will.Meet.A.Tall.Dark.Stranger.2010.1080p.BluRay.x264-Japhson.torrent 0 金币 33.28K 455 次 2月前

#1楼
发帖时间:2019-06-17 19:39:32   |   回复数:2
liyouchai
隐世仙人♂
谢谢楼主分享资源
2月前 #2楼
911degrees
隐世仙人♂
非常感谢,谢谢分享
2月前 #3楼
游客组