conanlcg
超级版主

[2014] [其他] [剧情] [BD-1080P] 沙海漂流人/夺还者 The.Rover.2014.1080p.BluRay.x264-GECKOS 7.65GB

-->

帖子完整标题:沙海漂流人/夺还者 The.Rover.2014.1080p.BluRay.x264-GECKOS 7.65GB




◎译  名 沙海漂流人 / 夺还者 / 漂泊者 / 绝命正义
◎片  名 The Rover
◎年  代 2014
◎产  地 澳大利亚 / 美国
◎类  别 剧情 / 犯罪
◎语  言 英语 / 汉语普通话
◎上映日期 2014-05-18(戛纳电影节) / 2014-06-12(澳大利亚)
◎IMDb评分 6.4/10 from 40615 users
◎IMDb链接 http://www.imdb.com/title/tt2345737
◎豆瓣评分 6.2/10 from 1920 users
◎豆瓣链接 https://movie.douban.com/subject/10578312/
◎片  长 103分钟
◎导  演 大卫·米奇欧德 David Mich?d
◎编  剧 乔尔·埃哲顿 Joel Edgerton / 大卫·米奇欧德 David Mich?d
◎主  演 罗伯特·帕丁森 Robert Pattinson
      盖·皮尔斯 Guy Pearce
      斯科特·麦克纳里 Scoot McNairy
      大卫·菲尔德 David Field
      理查德·格林 Richard Green
      吉莉安·琼斯 Gillian Jones
      纳许·艾德顿 Nash Edgerton
      安东尼·海斯 Anthony Hayes


◎标  签 澳大利亚 | 犯罪 | 公路 | 剧情 | 2014 | 暴力 | 人性 | 美国

◎简  介

  电影故事在澳洲的沙漠腹地展开,盖·皮尔斯饰演的艾瑞克(Eric)在金融危机中失去了所有财富,四处流浪的他经历一群暴徒的抢劫,他们抢走了他最后的金钱,同时也带走了他身上所有人性美好的部分。艾瑞克决定反抗,他冒死追踪这帮暴徒,并得到其中一位受伤的暴徒雷伊(罗伯特·帕丁森 饰演)的帮助...

Video
ID : 1
Format : AVC
Format/Info : Advanced Video Codec
Format profile : [email protected]
Format settings, CABAC : Yes
Format settings, ReFrames : 5 frames
Codec ID : V_MPEG4/ISO/AVC
Duration : 1 h 42 min
Bit rate : 9 134 kb/s
Width : 1 920 pixels
Height : 800 pixels
Display aspect ratio : 2.40:1
Frame rate mode : Constant
Frame rate : 23.976 FPS
Color space : YUV
Chroma subsampling : 4:2:0
Bit depth : 8 bits
Scan type : Progressive
Bits/(Pixel*Frame) : 0.248
Stream size : 6.41 GiB (84%)
Writing library : x264 core 142 r2453 ea0ca51
Encoding settings : cabac=1 / ref=5 / deblock=1:0:0 / analyse=0x3:0x133 / me=umh / subme=7 / psy=1 / psy_rd=1.00:0.00 / mixed_ref=1 / me_range=16 / chroma_me=1 / trellis=1 / 8x8dct=1 / cqm=0 / deadzone=21,11 / fast_pskip=0 / chroma_qp_offset=-2 / threads=18 / lookahead_threads=3 / sliced_threads=0 / nr=0 / decimate=1 / interlaced=0 / bluray_compat=0 / constrained_intra=0 / bframes=3 / b_pyramid=2 / b_adapt=1 / b_bias=0 / direct=1 / weightb=1 / open_gop=0 / weightp=2 / keyint=250 / keyint_min=23 / scenecut=40 / intra_refresh=0 / rc_lookahead=40 / rc=2pass / mbtree=1 / bitrate=9134 / ratetol=1.0 / qcomp=0.60 / qpmin=0 / qpmax=69 / qpstep=4 / cplxblur=20.0 / qblur=0.5 / ip_ratio=1.40 / aq=1:1.00
Language : English
Default : Yes
Forced : No

Audio
ID : 2
Format : DTS
Format/Info : Digital Theater Systems
Mode : 16
Format settings, Endianness : Big
Codec ID : A_DTS
Duration : 1 h 42 min
Bit rate mode : Constant
Bit rate : 1 509 kb/s
Channel(s) : 6 channels
Channel positions : Front: L C R, Side: L R, LFE
Sampling rate : 48.0 kHz
Frame rate : 93.750 FPS (512 spf)
Bit depth : 24 bits
Compression mode : Lossy
Stream size : 1.08 GiB (14%)
Language : English
Default : Yes
Forced : No

Menu
00:00:00.000 : en:00:00:00.000
00:05:54.145 : en:00:05:54.145
00:12:57.610 : en:00:12:57.610
00:17:51.404 : en:00:17:51.404
00:25:28.360 : en:00:25:28.360
00:30:34.666 : en:00:30:34.666
00:36:52.293 : en:00:36:52.293
00:42:18.703 : en:00:42:18.703
00:47:47.531 : en:00:47:47.531
00:53:05.349 : en:00:53:05.349
01:00:39.344 : en:01:00:39.344
01:08:57.759 : en:01:08:57.759
01:17:00.991 : en:01:17:00.991
01:20:07.511 : en:01:20:07.511
01:24:39.241 : en:01:24:39.241
01:33:18.134 : en:01:33:18.134





1 个附件 售价 大小 下载 时间

The.Rover.2014.1080p.BluRay.x264-GECKOS.torrent 0 金币 77.00K 420 次 2月前

#1楼
发帖时间:2019-06-17 19:48:01   |   回复数:2
liyouchai
隐世仙人♂
谢谢楼主分享资源
2月前 #2楼
911degrees
隐世仙人♂
非常感谢,谢谢分享
2月前 #3楼
游客组