conanlcg
超级版主

[2010] [欧美] [剧情] [BD-1080P] 你怎么知道/你怎知道 How.Do.You.Know.2010.1080p.BluRay.x264-Japhson 8.74GB

-->

帖子完整标题:你怎么知道/你怎知道 How.Do.You.Know.2010.1080p.BluRay.x264-Japhson 8.74GB




◎译  名 你怎么知道 / 你怎知道 / 爱在心里怎知道(台) / 爱情话你知(港) / 爱的可能
◎片  名 How Do You Know
◎年  代 2010
◎产  地 美国
◎类  别 剧情 / 喜剧 / 爱情
◎语  言 英语
◎上映日期 2010-12-17
◎IMDb评分 5.4/10 from 41099 users
◎IMDb链接 http://www.imdb.com/title/tt1341188
◎豆瓣评分 5.8/10 from 2928 users
◎豆瓣链接 https://movie.douban.com/subject/3389596/
◎片  长 121分钟
◎导  演 詹姆斯·L·布鲁克斯 James L. Brooks
◎编  剧 詹姆斯·L·布鲁克斯 James L. Brooks
◎主  演 保罗·路德 Paul Rudd
      瑞茜·威瑟斯彭 Reese Witherspoon
      杰克·尼科尔森 Jack Nicholson
      欧文·威尔逊 Owen Wilson


◎标  签 爱情 | 美国 | 喜剧 | 美国电影 | ReeseWitherspoon | 2010 | PaulRudd | JackNicholson

◎简  介

  作为曾经叱咤风云的前垒球运动员,丽莎(瑞茜·威瑟斯彭 Reese Witherspoon 饰)不得不承认,自己30岁的“高龄”早已不适合再在职场上闯荡了。而就在事业遭受打击的节骨眼上,丽莎的感情也遭遇了危机。丽莎的男友马蒂(欧文·威尔逊 Owen Wilson 饰)是一个著名的花花公子,而身处而立之年的丽莎再也不愿意忍气吞声的当他的“备胎”,相处多年的两人一拍而散。
就在人生渐渐走向低谷的时候,丽莎遇见了名叫乔治(保罗·路德 Paul Rudd 饰)的男人。乔治有一个华尔街大亨父亲和一个让人血脉喷张的漂亮女友,可是在刹那间,他失去了这一切,甚至成为了联邦调查局的目标。同是天涯沦落人,丽莎和乔治的距离慢慢的拉近着,就在一切顺利进行的时候,马蒂却杀了个回马枪,乞求丽莎回到他的身边。在前男友和高富帅之间,丽莎不知该如何选择。

Video
ID : 1
Format : AVC
Format/Info : Advanced Video Codec
Format profile : [email protected]
Format settings, CABAC : Yes
Format settings, ReFrames : 4 frames
Muxing mode : Header stripping
Codec ID : V_MPEG4/ISO/AVC
Duration : 2h 0mn
Bit rate : 8 851 Kbps
Width : 1 920 pixels
Height : 1 040 pixels
Display aspect ratio : 1.85:1
Frame rate mode : Constant
Frame rate : 23.976 fps
Color space : YUV
Chroma subsampling : 4:2:0
Bit depth : 8 bits
Scan type : Progressive
Bits/(Pixel*Frame) : 0.185
Stream size : 7.29 GiB (83%)
Writing library : x264 core 115 r1937 aa21558
Encoding settings : cabac=1 / ref=4 / deblock=1:-1:-1 / analyse=0x3:0x113 / me=umh / subme=7 / psy=1 / psy_rd=1.00:0.00 / mixed_ref=1 / me_range=16 / chroma_me=1 / trellis=1 / 8x8dct=1 / cqm=0 / deadzone=21,11 / fast_pskip=0 / chroma_qp_offset=-2 / threads=12 / sliced_threads=0 / nr=0 / decimate=1 / interlaced=0 / bluray_compat=0 / constrained_intra=0 / bframes=3 / b_pyramid=2 / b_adapt=2 / b_bias=0 / direct=3 / weightb=1 / open_gop=0 / weightp=2 / keyint=250 / keyint_min=23 / scenecut=40 / intra_refresh=0 / rc_lookahead=40 / rc=2pass / mbtree=1 / bitrate=8851 / ratetol=1.0 / qcomp=0.60 / qpmin=0 / qpmax=69 / qpstep=4 / cplxblur=20.0 / qblur=0.5 / vbv_maxrate=50000 / vbv_bufsize=50000 / nal_hrd=none / ip_ratio=1.40 / aq=1:1.00
Language : English
Default : Yes
Forced : Yes

Audio
ID : 2
Format : DTS
Format/Info : Digital Theater Systems
Mode : 16
Format settings, Endianness : Big
Muxing mode : Header stripping
Codec ID : A_DTS
Duration : 2h 0mn
Bit rate mode : Constant
Bit rate : 1 509 Kbps
Channel(s) : 6 channels
Channel positions : Front: L C R, Side: L R, LFE
Sampling rate : 48.0 KHz
Bit depth : 24 bits
Compression mode : Lossy\
Stream size : 1.27 GiB (15%)
Language : English
Default : Yes
Forced : Yes





1 个附件 售价 大小 下载 时间

How.Do.You.Know.2010.1080p.BluRay.x264-Japhson.torrent 0 金币 87.92K 364 次 2月前

#1楼
发帖时间:2019-06-17 20:11:33   |   回复数:2
liyouchai
隐世仙人♂
谢谢楼主分享资源
2月前 #2楼
911degrees
隐世仙人♂
非常感谢,谢谢分享
2月前 #3楼
游客组