conanlcg
超级版主

[2011] [其他] [动作] [BD-1080P] 持枪流浪汉/流浪汉的猎枪 Hobo.with.a.Shotgun.2011.LIMITED.1080p.BluRay.X264-AMIABLE 5.46GB

-->

帖子完整标题:持枪流浪汉/流浪汉的猎枪 Hobo.with.a.Shotgun.2011.LIMITED.1080p.BluRay.X264-AMIABLE 5.46GB




◎译  名 持枪流浪汉 / 流浪汉的猎枪
◎片  名 Hobo with a Shotgun
◎年  代 2011
◎产  地 加拿大 / 美国
◎类  别 动作 / 惊悚 / 犯罪 / 冒险
◎语  言 英语
◎上映日期 2011
◎IMDb评分 6.1/10 from 41654 users
◎IMDb链接 http://www.imdb.com/title/tt1640459
◎豆瓣评分 6.7/10 from 3920 users
◎豆瓣链接 https://movie.douban.com/subject/4901351/
◎片  长 86分钟
◎导  演 Jason Eisener
◎编  剧 John Davies
◎主  演 Rutger Hauer
      Molly Dunsworth
      Brian Downey
      Gregory Smith


◎标  签 暴力 | 血腥 | cult | B级 | 美国 | 重口味 | 犯罪 | 2011

◎简  介

  一个老流浪汉(Rutger Hauer 饰)路经一座被疯狂犯罪行为所笼罩的城市,这里充斥着杀童、强迫卖淫等等极恶罪行,暗中统治这里的德瑞克一家热衷于当街杀人,老德瑞克(Brian Downey 饰)和两个儿子横行街头。流浪汉从德瑞克之子的手中救下妓女艾比(Molly Dunsworth 饰),结果反被警察设计陷害,身受重伤。流浪汉试图遵守这座罪恶之城的生存法则,忍辱求生,然而事与愿违,抢劫案偏偏又找上他,忍无可忍的流浪汉终于决定拿起枪寻求公平,他对暴力罪犯大开杀戒,在城市中引发了居民群起反抗的热血,德瑞克一家同样不甘示弱,借助媒体发布了针对所有流浪汉的绝杀令,一时间,罪恶之城血流成河……

Video
ID : 1
Format : AVC
Format/Info : Advanced Video Codec
Format profile : [email protected]
Format settings : CABAC / 5 Ref Frames
Format settings, CABAC : Yes
Format settings, ReFrames : 5 frames
Codec ID : V_MPEG4/ISO/AVC
Duration : 1 h 26 min
Bit rate : 8 330 kb/s
Width : 1 920 pixels
Height : 800 pixels
Display aspect ratio : 2.40:1
Frame rate mode : Constant
Frame rate : 23.976 (24000/1001) FPS
Color space : YUV
Chroma subsampling : 4:2:0
Bit depth : 8 bits
Scan type : Progressive
Bits/(Pixel*Frame) : 0.226
Stream size : 4.89 GiB (90%)
Writing library : x264 core 115 r2008 4c552d8
Encoding settings : cabac=1 / ref=5 / deblock=1:0:0 / analyse=0x3:0x113 / me=umh / subme=8 / psy=1 / psy_rd=1.00:0.00 / mixed_ref=1 / me_range=16 / chroma_me=1 / trellis=1 / 8x8dct=1 / cqm=0 / deadzone=21,11 / fast_pskip=1 / chroma_qp_offset=-2 / threads=12 / sliced_threads=0 / nr=0 / decimate=1 / interlaced=0 / bluray_compat=0 / constrained_intra=0 / bframes=3 / b_pyramid=2 / b_adapt=2 / b_bias=0 / direct=3 / weightb=1 / open_gop=0 / weightp=2 / keyint=240 / keyint_min=24 / scenecut=40 / intra_refresh=0 / rc_lookahead=50 / rc=2pass / mbtree=1 / bitrate=8330 / ratetol=1.0 / qcomp=0.60 / qpmin=0 / qpmax=69 / qpstep=4 / cplxblur=20.0 / qblur=0.5 / ip_ratio=1.40 / aq=1:1.00
Language : English
Default : Yes
Forced : No

Audio
ID : 2
Format : DTS
Format/Info : Digital Theater Systems
Codec ID : A_DTS
Duration : 1 h 26 min
Bit rate mode : Constant
Bit rate : 768 kb/s
Channel(s) : 6 channels
Channel positions : Front: L C R, Side: L R, LFE
Sampling rate : 48.0 kHz
Frame rate : 93.750 FPS (512 SPF)
Bit depth : 24 bits
Compression mode : Lossy
Stream size : 472 MiB (8%)
Language : English
Default : Yes
Forced : No

Text
ID : 3
Format : UTF-8
Codec ID : S_TEXT/UTF8
Codec ID/Info : UTF-8 Plain Text
Language : English
Default : No
Forced : No





1 个附件 售价 大小 下载 时间

Hobo.with.a.Shotgun.2011.LIMITED.1080p.BluRay.X264-AMIABLE.torrent 0 金币 55.18K 441 次 3月前

#1楼
发帖时间:2019-06-17 20:14:02   |   回复数:2
liyouchai
隐世仙人♂
谢谢楼主分享资源
3月前 #2楼
911degrees
隐世仙人♂
非常感谢,谢谢分享
3月前 #3楼
游客组