conanlcg
超级版主

[2011] [其他] [剧情] [BD-1080P] 非法入侵/不忠之劫 Trespass.2011.LIMITED.1080p.BluRay.X264-AMIABLE 6.55GB

-->

帖子完整标题:非法入侵/不忠之劫 Trespass.2011.LIMITED.1080p.BluRay.X264-AMIABLE 6.55GB




◎译  名 非法入侵 / 不忠之劫(港)
◎片  名 Trespass
◎年  代 2011
◎产  地 美国 / 保加利亚
◎类  别 剧情 / 惊悚 / 犯罪
◎语  言 英语
◎上映日期 2011-10-14(美国)
◎IMDb评分 5.3/10 from 39454 users
◎IMDb链接 http://www.imdb.com/title/tt1674784
◎豆瓣评分 5.7/10 from 9036 users
◎豆瓣链接 https://movie.douban.com/subject/4919232/
◎片  长 90分钟
◎导  演 乔·舒马赫 Joel Schumacher
◎编  剧 卡尔·盖杜谢克 Karl Gajdusek
◎主  演 尼古拉斯·凯奇 Nicolas Cage
      妮可·基德曼 Nicole Kidman
      本·门德尔森 Ben Mendelsohn
      丽亚娜·莱伯拉托 Liana Liberato
      凯姆·吉甘戴 Cam Gigandet
      乔丹娜·斯皮罗 Jordana Spiro
      达什·米霍克 Dash Mihok
      艾米丽·梅德 Emily Meade
      尼可·托托雷拉 Nico Tortorella


◎标  签 犯罪 | 美国 | NicoleKidman | NicolasCage | 尼古拉斯·凯奇 | 悬疑 | 剧情 | 2011

◎简  介

  米勒一家似乎拥有所有人都梦寐以求的生活:豪宅、跑车、美满的家庭。在一个普通的日子,美丽的妻子萨拉(妮可·基德曼 Nicole Kidman 饰)迎接出差回家的丈夫,成功的钻石采购商凯尔(尼古拉斯·凯奇 Nicolas Cage 饰)。凯尔回家的同时青春期的女儿则艾弗瑞(丽亚娜·莱伯拉托 Liana Liberato 饰)瞒着父母偷偷溜出家门去参加朋友家的派对。可是天有不测风云,一伙由四人组成的抢劫团伙闯进米勒家,绑架了夫妇二人欲实施抢劫。艾弗瑞参加完派对回家也不幸撞到了家中正在发生的悲剧。面对丧心病狂的劫匪,米勒一家将怎样解除危机?他们是否会安然无恙?而这看似普通的抢劫背后是否又有不为人知的阴谋和肮脏的秘密?

◎获奖情况

  第32届金酸莓奖(2012)
  最差男主角(提名) 尼古拉斯·凯奇

  第2届豆瓣电影鑫像奖(2012)
  豆渣单元 最渣影片(外语)(提名)



Video
ID : 1
Format : AVC
Format/Info : Advanced Video Codec
Format profile : [email protected]
Format settings, CABAC : Yes
Format settings, ReFrames : 5 frames
Codec ID : V_MPEG4/ISO/AVC
Duration : 1 h 30 min
Bit rate : 9 710 kb/s
Width : 1 920 pixels
Height : 800 pixels
Display aspect ratio : 2.40:1
Frame rate mode : Constant
Frame rate : 23.976 (24000/1001) FPS
Color space : YUV
Chroma subsampling : 4:2:0
Bit depth : 8 bits
Scan type : Progressive
Bits/(Pixel*Frame) : 0.264
Stream size : 6.02 GiB (92%)
Writing library : x264 core 118 r2085 8a62835
Encoding settings : cabac=1 / ref=5 / deblock=1:0:0 / analyse=0x3:0x113 / me=umh / subme=8 / psy=1 / psy_rd=1.00:0.00 / mixed_ref=1 / me_range=16 / chroma_me=1 / trellis=1 / 8x8dct=1 / cqm=0 / deadzone=21,11 / fast_pskip=1 / chroma_qp_offset=-2 / threads=12 / sliced_threads=0 / nr=0 / decimate=1 / interlaced=0 / bluray_compat=0 / constrained_intra=0 / bframes=3 / b_pyramid=2 / b_adapt=2 / b_bias=0 / direct=3 / weightb=1 / open_gop=0 / weightp=2 / keyint=240 / keyint_min=24 / scenecut=40 / intra_refresh=0 / rc_lookahead=50 / rc=2pass / mbtree=1 / bitrate=9710 / ratetol=1.0 / qcomp=0.60 / qpmin=0 / qpmax=69 / qpstep=4 / cplxblur=20.0 / qblur=0.5 / ip_ratio=1.40 / aq=1:1.00
Language : English
Default : Yes
Forced : No

Audio
ID : 2
Format : AC-3
Format/Info : Audio Coding 3
Format settings, Endianness : Big
Codec ID : A_AC3
Duration : 1 h 30 min
Bit rate mode : Constant
Bit rate : 640 kb/s
Channel(s) : 6 channels
Channel positions : Front: L C R, Side: L R, LFE
Sampling rate : 48.0 kHz
Frame rate : 31.250 FPS (1536 spf)
Bit depth : 16 bits
Compression mode : Lossy
Stream size : 415 MiB (6%)
Language : English
Service kind : Complete Main
Default : Yes
Forced : No

Text
ID : 3
Format : UTF-8
Codec ID : S_TEXT/UTF8
Codec ID/Info : UTF-8 Plain Text
Language : English
Default : No
Forced : No

Menu
00:00:00.000 : en:00:00:00.000
00:08:37.016 : en:00:08:37.016
00:17:40.518 : en:00:17:40.518
00:25:57.806 : en:00:25:57.806
00:36:02.827 : en:00:36:02.827
00:41:23.398 : en:00:41:23.398
00:45:04.118 : en:00:45:04.118
00:54:16.086 : en:00:54:16.086
01:00:17.155 : en:01:00:17.155
01:07:16.324 : en:01:07:16.324
01:14:25.336 : en:01:14:25.336
01:24:56.049 : en:01:24:56.049





1 个附件 售价 大小 下载 时间

Trespass.2011.LIMITED.1080p.BluRay.X264-AMIABLE.torrent 0 金币 66.06K 917 次 1月前

#1楼
发帖时间:2019-06-17 22:32:40   |   回复数:2
liyouchai
隐世仙人♂
谢谢楼主分享资源
1月前 #2楼
911degrees
隐世仙人♂
非常感谢,谢谢分享
1月前 #3楼
游客组