conanlcg
超级版主

[2011] [欧美] [喜剧] [BD-1080P] 观鸟大年 The.Big.Year.2011.EXTENDED.1080p.BluRay.X264-AMIABLE 7.65GB

-->

帖子完整标题:观鸟大年 The.Big.Year.2011.EXTENDED.1080p.BluRay.X264-AMIABLE 7.65GB




◎译  名 观鸟大年 / Metu ivykis
◎片  名 The Big Year
◎年  代 2011
◎产  地 美国
◎类  别 喜剧
◎语  言 英语
◎上映日期 2011-10-14(美国)
◎IMDb评分 6.2/10 from 39541 users
◎IMDb链接 http://www.imdb.com/title/tt1053810
◎豆瓣评分 7.6/10 from 7673 users
◎豆瓣链接 https://movie.douban.com/subject/2363925/
◎片  长 100分钟
◎导  演 大卫·弗兰科尔 David Frankel
◎编  剧 霍华德·法兰克林 Howard Franklin / 马克·欧柏马西克 Mark Obmascik
◎主  演 欧文·威尔逊 Owen Wilson
      杰克·布莱克 Jack Black
      史蒂夫·马丁 Steve Martin
      吉姆·帕森斯 Jim Parsons
      裴淳华 Rosamund Pike
      拉什达·琼斯 Rashida Jones
      安杰丽卡·休斯顿 Anjelica Huston
      约翰·克立斯 John Cleese


◎标  签 喜剧 | 美国电影 | 自然 | 2011 | 梦想 | 励志 | 动物 | 温情

◎简  介

  “大年(big year)”是观鸟爱好者的一种竞赛,参赛者需要用一整年的时间和精力,记录自己观察到的鸟类种类数量,数量最多者取胜。布莱德、斯图和肯尼就是三位铁杆观鸟爱好者。布莱德(杰克·布莱克 Jack Black 饰)是个一事无成的大龄宅男,因此决定花掉一大笔钱参加“大年”时,他父母觉得他疯了;斯图(史蒂夫·马丁 Steve Martin 饰)是一家大公司的总裁,所以当他决定放下手头百万生意,跑去参加“大年”,他助理觉得他疯了。此一老一少在竞争中相识,很快成为朋友,决定共同对付他们最强的对手——上一届“大年”的得胜者肯尼(欧文·威尔逊 Owen Wilson 饰)。只有鸟友才懂,放弃整整一年的事业和生活意味着什么,三个“鸟友”在大年中奋力竞争,最终要回头面对的还是生活中的问题……
影片改编自1998年马克·欧布马克西(Mark Obmascik)的同名小说。

Video
ID : 1
Format : AVC
Format/Info : Advanced Video Codec
Format profile : [email protected]
Format settings, CABAC : Yes
Format settings, ReFrames : 5 frames
Codec ID : V_MPEG4/ISO/AVC
Duration : 1h 43mn
Bit rate : 9 112 Kbps
Width : 1 920 pixels
Height : 816 pixels
Display aspect ratio : 2.35:1
Frame rate mode : Constant
Frame rate : 23.976 (24000/1001) fps
Color space : YUV
Chroma subsampling : 4:2:0
Bit depth : 8 bits
Scan type : Progressive
Bits/(Pixel*Frame) : 0.243
Stream size : 6.41 GiB (84%)
Writing library : x264 core 120 r2146 bcd41db
Encoding settings : cabac=1 / ref=5 / deblock=1:0:0 / analyse=0x3:0x113 / me=umh / subme=8 / psy=1 / psy_rd=1.00:0.00 / mixed_ref=1 / me_range=16 / chroma_me=1 / trellis=1 / 8x8dct=1 / cqm=0 / deadzone=21,11 / fast_pskip=1 / chroma_qp_offset=-2 / threads=12 / sliced_threads=0 / nr=0 / decimate=1 / interlaced=0 / bluray_compat=0 / constrained_intra=0 / bframes=3 / b_pyramid=2 / b_adapt=2 / b_bias=0 / direct=3 / weightb=1 / open_gop=0 / weightp=2 / keyint=240 / keyint_min=24 / scenecut=40 / intra_refresh=0 / rc_lookahead=50 / rc=2pass / mbtree=1 / bitrate=9112 / ratetol=1.0 / qcomp=0.60 / qpmin=0 / qpmax=69 / qpstep=4 / cplxblur=20.0 / qblur=0.5 / ip_ratio=1.40 / aq=1:1.00
Language : English
Default : Yes
Forced : No

Audio
ID : 2
Format : DTS
Format/Info : Digital Theater Systems
Mode : 16
Format settings, Endianness : Big
Codec ID : A_DTS
Duration : 1h 43mn
Bit rate mode : Constant
Bit rate : 1 509 Kbps
Channel(s) : 6 channels
Channel positions : Front: L C R, Side: L R, LFE
Sampling rate : 48.0 KHz
Frame rate : 93.750 fps (512 spf)
Bit depth : 24 bits
Compression mode : Lossy
Stream size : 1.09 GiB (14%)
Language : English
Default : Yes
Forced : No

Text
ID : 3
Format : UTF-8
Codec ID : S_TEXT/UTF8
Codec ID/Info : UTF-8 Plain Text
Language : English
Default : No
Forced : No

Menu
00:00:00.000 : en:00:00:00.000
00:04:33.481 : en:00:04:33.481
00:06:56.750 : en:00:06:56.750
00:11:38.323 : en:00:11:38.323
00:14:39.587 : en:00:14:39.587
00:20:54.295 : en:00:20:54.295
00:22:43.988 : en:00:22:43.988
00:28:20.282 : en:00:28:20.282
00:31:54.955 : en:00:31:54.955
00:34:50.797 : en:00:34:50.797
00:38:30.641 : en:00:38:30.641
00:41:01.042 : en:00:41:01.042
00:44:40.719 : en:00:44:40.719
00:47:00.985 : en:00:47:00.985
00:51:58.448 : en:00:51:58.448
00:53:19.029 : en:00:53:19.029
00:56:47.195 : en:00:56:47.195
01:00:13.234 : en:01:00:13.234
01:02:09.642 : en:01:02:09.642
01:07:39.180 : en:01:07:39.180
01:09:26.620 : en:01:09:26.620
01:11:37.001 : en:01:11:37.001
01:13:30.072 : en:01:13:30.072
01:17:00.532 : en:01:17:00.532
01:20:00.754 : en:01:20:00.754
01:23:33.925 : en:01:23:33.925
01:27:18.066 : en:01:27:18.066
01:29:21.564 : en:01:29:21.564
01:31:50.588 : en:01:31:50.588
01:34:40.633 : en:01:34:40.633
01:36:13.017 : en:01:36:13.017
01:37:44.108 : en:01:37:44.108





1 个附件 售价 大小 下载 时间

The.Big.Year.2011.EXTENDED.1080p.BluRay.X264-AMIABLE.torrent 0 金币 77.14K 672 次 5月前

#1楼
发帖时间:2019-06-17 22:39:55   |   回复数:2
liyouchai
隐世仙人♂
谢谢楼主分享资源
5月前 #2楼
911degrees
隐世仙人♂
非常感谢,谢谢分享
5月前 #3楼
游客组