conanlcg
超级版主

[2018] [欧美] [剧情] [4K-原盘] 杀死希特勒与大脚怪的人/先杀希特勒后杀大脚怪的男人 The.Man.Who.Killed.Hitler.and.Then.The.Bigfoot.2018.21

-->

帖子完整标题:杀死希特勒与大脚怪的人/先杀希特勒后杀大脚怪的男人 The.Man.Who.Killed.Hitler.and.Then.The.Bigfoot.2018.2160p.BluRay.REMUX.HEVC.DTS-HD.MA.5.1-FGT 36.95GB




◎译  名 杀死希特勒与大脚怪的人 / 先杀希特勒后杀大脚怪的男人
◎片  名 The Man Who Killed Hitler and Then the Bigfoot
◎年  代 2018
◎产  地 美国
◎类  别 剧情 / 冒险
◎语  言 英语
◎上映日期 2018-07-20(加拿大奇幻电影节) / 2019-02-08(美国)
◎IMDb评分 5.6/10 from 4245 users
◎IMDb链接 http://www.imdb.com/title/tt7042862
◎豆瓣评分 6.1/10 from 1026 users
◎豆瓣链接 https://movie.douban.com/subject/27078570/
◎片  长 98分钟
◎导  演 罗伯特·D·卡兹科夫斯基 Robert D. Krzykowski
◎编  剧 罗伯特·D·卡兹科夫斯基 Robert D. Krzykowski
◎主  演 山姆·艾里奥特 Sam Elliott
      艾丹·特纳 Aidan Turner
      朗·里维斯顿 Ron Livingston
      凯特琳·菲茨杰拉德 Caitlin Fitzgerald
      肖恩·布里吉格斯 Sean Bridgers
      拉里·米勒 Larry Miller
      阿纳斯塔西亚·齐卡那瓦 Anastasia Tsikhanava
      埃拉·科尔特兰 Ellar Coltrane
      马克·斯达格 Mark Steger
      里兹万·曼吉 Rizwan Manji
      阿尔顿·菲茨杰拉德·怀特 Alton Fitzgerald White
      罗科·焦弗雷 Rocco Gioffre
      特里·霍兰德 Terry Holland
      艾伦·弗朗西斯 Alan Francis
      马克·隆德 Mark Lund
      丹尼尔·B·马丁 Daniel B. Martin
      罗丝玛丽·霍华德 Rosemary Howard


◎标  签 美国 | 剧情 | 冒险 | 2019 | 科幻 | 魔幻 | 希特勒 | 爱情

◎简  介

  山姆·艾里奥特(《一个明星的诞生》《谋杀绿脚趾》)饰演的Calvin看似只是个普通的带狗老人,等艾丹·特纳(《霍比特人》《无人生还》)饰演的年轻时的他登场,才知原来当年竟是他杀死了阿道夫·希特勒。几十年后的如今,Calvin大隐隐于市,却被美国政府再找上门,希望他再次拯救世界:去加拿大翻山越岭,杀死传说中的“雪人”大脚怪,它身上带着致命瘟疫。

Video
ID : 1
Format : HEVC
Format/Info : High Efficiency Video Coding
Commercial name : HDR10
Format profile : Main [email protected]@High
Codec ID : V_MPEGH/ISO/HEVC
Duration : 1 h 39 min
Bit rate : 47.7 Mb/s
Width : 3 840 pixels
Height : 2 160 pixels
Display aspect ratio : 16:9
Frame rate mode : Constant
Frame rate : 23.976 (24000/1001) FPS
Color space : YUV
Chroma subsampling : 4:2:0 (Type 2)
Bit depth : 10 bits
Bits/(Pixel*Frame) : 0.240
Stream size : 33.3 GiB (90%)
Title : The.Man.Who.Killed.Hitler.and.Then.The.Bigfoot.2018.2160p.BluRay.REMUX.HEVC.DTS-HD.MA.5.1-FGT
Language : English
Default : No
Forced : No
Color range : Limited
Color primaries : BT.2020
Transfer characteristics : PQ
Matrix coefficients : BT.2020 non-constant
Mastering display color primaries : BT.2020
Mastering display luminance : min: 0.0050 cd/m2, max: 1000 cd/m2
Maximum Content Light Level : 962 cd/m2
Maximum Frame-Average Light Level : 235 cd/m2

Audio #1
ID : 2
Format : DTS XLL
Format/Info : Digital Theater Systems
Commercial name : DTS-HD Master Audio
Codec ID : A_DTS
Duration : 1 h 37 min
Bit rate mode : Variable
Bit rate : 1 826 kb/s
Channel(s) : 6 channels
Channel layout : C L R Ls Rs LFE
Sampling rate : 48.0 kHz
Frame rate : 93.750 FPS (512 SPF)
Bit depth : 16 bits
Compression mode : Lossless
Stream size : 1.25 GiB (3%)
Title : The.Man.Who.Killed.Hitler.and.Then.The.Bigfoot.2018.2160p.BluRay.REMUX.HEVC.DTS-HD.MA.5.1-FGT
Language : English
Default : Yes
Forced : No

Audio #2
ID : 3
Format : DTS XLL
Format/Info : Digital Theater Systems
Commercial name : DTS-HD Master Audio
Codec ID : A_DTS
Duration : 1 h 37 min
Bit rate mode : Variable
Bit rate : 3 516 kb/s
Channel(s) : 6 channels
Channel layout : C L R Ls Rs LFE
Sampling rate : 48.0 kHz
Frame rate : 93.750 FPS (512 SPF)
Bit depth : 24 bits
Compression mode : Lossless
Stream size : 2.40 GiB (6%)
Title : The.Man.Who.Killed.Hitler.and.Then.The.Bigfoot.2018.2160p.BluRay.REMUX.HEVC.DTS-HD.MA.5.1-FGT
Language : German
Default : No
Forced : No

Text #1
ID : 4
Format : UTF-8
Codec ID : S_TEXT/UTF8
Codec ID/Info : UTF-8 Plain Text
Duration : 1 h 29 min
Bit rate : 34 b/s
Count of elements : 823
Stream size : 22.4 KiB (0%)
Title : English-SRT
Language : English
Default : Yes
Forced : No

Text #2
ID : 5
Format : UTF-8
Codec ID : S_TEXT/UTF8
Codec ID/Info : UTF-8 Plain Text
Duration : 1 h 30 min
Bit rate : 43 b/s
Count of elements : 1116
Stream size : 29.0 KiB (0%)
Title : English-SDH-SRT
Language : English
Default : No
Forced : No

Text #3
ID : 6
Format : PGS
Muxing mode : zlib
Codec ID : S_HDMV/PGS
Codec ID/Info : Picture based subtitle format used on BDs/HD-DVDs
Duration : 1 h 29 min
Bit rate : 27.9 kb/s
Count of elements : 1668
Stream size : 17.8 MiB (0%)
Title : German-PGS
Language : German
Default : No
Forced : No

Text #4
ID : 7
Format : PGS
Muxing mode : zlib
Codec ID : S_HDMV/PGS
Codec ID/Info : Picture based subtitle format used on BDs/HD-DVDs
Duration : 1 h 34 min
Bit rate : 28.3 kb/s
Count of elements : 1865
Stream size : 19.1 MiB (0%)
Title : German-PGS
Language : German
Default : No
Forced : No

Text #5
ID : 8
Format : PGS
Muxing mode : zlib
Codec ID : S_HDMV/PGS
Codec ID/Info : Picture based subtitle format used on BDs/HD-DVDs
Duration : 54 min 12 s
Bit rate : 527 b/s
Count of elements : 20
Stream size : 209 KiB (0%)
Title : German-FORCED-PGS
Language : German
Default : No
Forced : No

Menu
00:00:00.000 : en:Chapter 01
00:10:45.603 : en:Chapter 02
00:19:39.970 : en:Chapter 03
00:28:34.963 : en:Chapter 04
00:40:27.925 : en:Chapter 05
00:53:50.977 : en:Chapter 06
01:01:02.116 : en:Chapter 07
01:07:24.248 : en:Chapter 08
01:16:13.360 : en:Chapter 09
01:22:13.053 : en:Chapter 10





1 个附件 售价 大小 下载 时间

The.Man.Who.Killed.Hitler.and.Then.The.Bigfoot.2018.2160p.BluRay.REMUX.HEVC.DTS-HD.MA.5.1-FGT.torrent 0 金币 92.99K 476 次 2月前

#1楼
发帖时间:2019-06-18 12:54:13   |   回复数:3
blj2007
一派掌门
感谢分享,辛苦啦
2月前 #2楼
911degrees
隐世仙人♂
非常感谢,谢谢分享
2月前 #3楼
liyouchai
隐世仙人♂
谢谢楼主分享资源
2月前 #4楼
游客组