conanlcg
超级版主

[2010] [欧美] [剧情] [BD-1080P] 危狱惊情/叛狱攻略 Stone.2010.LIMITED.1080p.Bluray.x264-CBGB 6.55GB

-->

帖子完整标题:危狱惊情/叛狱攻略 Stone.2010.LIMITED.1080p.Bluray.x264-CBGB 6.55GB




◎译  名 危狱惊情 / 叛狱攻略 / 石头 / 色狱心机(台) / 顽石
◎片  名 Stone
◎年  代 2010
◎产  地 美国
◎类  别 剧情 / 惊悚
◎语  言 英语
◎上映日期 2010-10-08
◎IMDb评分 5.4/10 from 38676 users
◎IMDb链接 http://www.imdb.com/title/tt1423995
◎豆瓣评分 5.8/10 from 6311 users
◎豆瓣链接 https://movie.douban.com/subject/3706862/
◎片  长 USA: 105 分钟
◎导  演 John Curran
◎编  剧 Angus MacLachlan
◎主  演 Edward Norton
      Robert De Niro
      Milla Jovovich
      Frances Conroy
      Enver Gjokaj
      Liam Ferguson
      Pepper Binkley


◎标  签 EdwardNorton | 美国 | RobertDeNiro | 剧情 | 美国电影 | 罗伯特·德尼罗 | MillaJovovich | 2010

◎简  介

  谨慎恭敬的杰克·马尔比(罗伯特·德尼罗 Robert De Niro 饰)在某政府部门供职,每天的工作便是对那些申请假释的犯人进行审核。他年复一年干着这份枯燥无味的工作,与妻子麦迪琳(Frances Conroy 饰)的关系也分外冷淡。他的心中隐藏着蓬勃的欲望,却又不得不用端正的表象去掩饰。
在杰克即将退休的时刻,已经蹲了八年大牢的纵火犯乔治·“石头”·克里森(爱德华·诺顿 Edward Norton 饰)来到他的桌前。乔治希望早日走出大墙,为此巧言令色试图博取杰克的信任,甚至不惜让美艳的妻子卢赛塔(米拉·乔沃维奇 Milla Jovovich 饰)色诱这个看似一本正经的君子。杰克心中的欲望渐渐失控,而企图通过宗教包装自己的乔治也仿佛听到来自上帝的福音……

Video
ID : 1
Format : AVC
Format/Info : Advanced Video Codec
Format profile : [email protected]
Format settings : CABAC / 5 Ref Frames
Format settings, CABAC : Yes
Format settings, ReFrames : 5 frames
Codec ID : V_MPEG4/ISO/AVC
Duration : 1 h 45 min
Bit rate : 8 297 kb/s
Width : 1 920 pixels
Height : 800 pixels
Display aspect ratio : 2.40:1
Frame rate mode : Constant
Frame rate : 23.976 (24000/1001) FPS
Color space : YUV
Chroma subsampling : 4:2:0
Bit depth : 8 bits
Scan type : Progressive
Bits/(Pixel*Frame) : 0.225
Stream size : 5.95 GiB (91%)
Writing library : x264 core 112 r1834 a51816a
Encoding settings : cabac=1 / ref=5 / deblock=1:0:0 / analyse=0x3:0x113 / me=umh / subme=8 / psy=1 / psy_rd=1.00:0.20 / mixed_ref=1 / me_range=16 / chroma_me=1 / trellis=1 / 8x8dct=1 / cqm=0 / deadzone=21,11 / fast_pskip=1 / chroma_qp_offset=-3 / threads=12 / sliced_threads=0 / nr=0 / decimate=1 / interlaced=0 / constrained_intra=0 / bframes=3 / b_pyramid=2 / b_adapt=1 / b_bias=0 / direct=3 / weightb=1 / open_gop=0 / weightp=2 / keyint=250 / keyint_min=23 / scenecut=40 / intra_refresh=0 / rc_lookahead=40 / rc=2pass / mbtree=1 / bitrate=8297 / ratetol=1.0 / qcomp=0.60 / qpmin=0 / qpmax=51 / qpstep=4 / cplxblur=20.0 / qblur=0.5 / ip_ratio=1.40 / aq=1:1.00
Language : English
Default : Yes
Forced : No

Audio
ID : 2
Format : AC-3
Format/Info : Audio Coding 3
Codec ID : A_AC3
Duration : 1 h 45 min
Bit rate mode : Constant
Bit rate : 640 kb/s
Channel(s) : 6 channels
Channel positions : Front: L C R, Side: L R, LFE
Sampling rate : 48.0 kHz
Frame rate : 31.250 FPS (1536 SPF)
Bit depth : 16 bits
Compression mode : Lossy
Stream size : 481 MiB (7%)
Language : English
Service kind : Complete Main
Default : Yes
Forced : No

Menu
00:00:00.000 : en:00:00:00.000
00:09:38.745 : en:00:09:38.745
00:17:07.693 : en:00:17:07.693
00:25:05.921 : en:00:25:05.921
00:32:24.484 : en:00:32:24.484
00:41:07.090 : en:00:41:07.090
00:50:20.017 : en:00:50:20.017
00:58:36.805 : en:00:58:36.805
01:07:31.130 : en:01:07:31.130
01:19:07.993 : en:01:19:07.993
01:27:08.723 : en:01:27:08.723
01:41:15.403 : en:01:41:15.403





1 个附件 售价 大小 下载 时间

Stone.2010.LIMITED.1080p.Bluray.x264-CBGB.torrent 0 金币 66.00K 896 次 5月前

#1楼
发帖时间:2019-06-18 15:45:06   |   回复数:4
911degrees
隐世仙人♂
非常感谢,谢谢分享
5月前 #2楼
yangbo83222179
一代宗师
谢谢楼主分享,支持一下
5月前 #3楼
liyouchai
隐世仙人♂
谢谢楼主分享资源
5月前 #4楼
tanchoohoon
武林盟主
感谢楼主的无私分享
5月前 #5楼
游客组