conanlcg
超级版主

[2014] [欧美] [喜剧] [BD-1080P] 永远十六岁/Say When(英国) Laggies.2014.LIMITED.1080p.BluRay.x264-GECKOS 7.65GB

-->

帖子完整标题:永远十六岁/Say When(英国) Laggies.2014.LIMITED.1080p.BluRay.x264-GECKOS 7.65GB




◎译  名 永远十六岁 / Say When(英国)
◎片  名 Laggies
◎年  代 2014
◎产  地 美国
◎类  别 喜剧
◎语  言 英语
◎上映日期 2014-09-26(美国)
◎IMDb评分 6.4/10 from 38911 users
◎IMDb链接 http://www.imdb.com/title/tt2034031
◎豆瓣评分 6.3/10 from 6402 users
◎豆瓣链接 https://movie.douban.com/subject/20278806/
◎片  长 99分钟
◎导  演 琳·谢尔顿 Lynn Shelton
◎编  剧 Andrea Seigel
◎主  演 凯拉·奈特莉 Keira Knightley
      科洛·莫瑞兹 Chlo? Moretz
      山姆·洛克威尔 Sam Rockwell
      艾丽·坎伯尔 Ellie Kemper
      Tiya Sircar
      格瑞辰·摩尔 Gretchen Mol
      凯特林·德弗 Kaitlyn Dever
      马克·韦伯 Mark Webber
      Daniel Zovatto
      Dylan Arnold
      Tony Doupe
      Basil Harris
      Jasmin Savoy Brown
      Sara Coates
      Sara Lynne Wright


◎标  签 美国 | 青春 | KeiraKnightley | 喜剧 | 2014 | 爱情 | ChloeMoretz | 美国电影

◎简  介

  电影讲述28岁的女主角无法承受男友求婚的压力,她选择以与中学生交朋友的方式来逃避。凯拉·奈特莉在片中扮演一个叫做“梅根”(Megan)的年轻女人,她的男友(马克·韦伯)策划了一场别出心裁的求婚,结果吓坏了她,于是借着休假的名义和16岁的妹妹安妮卡(科洛·莫瑞兹)一起找了 个地方躲了起来。萨姆·洛克威尔在片中将扮演一个叫做“克莱格”(Craig)的老男人。

◎获奖情况

  第39届多伦多国际电影节(2014)
  观众选择奖(提名) 琳·谢尔顿



Video
ID : 1
Format : AVC
Format/Info : Advanced Video Codec
Format profile : [email protected]
Format settings, CABAC : Yes
Format settings, ReFrames : 4 frames
Codec ID : V_MPEG4/ISO/AVC
Duration : 1 h 39 min
Bit rate : 9 507 kb/s
Width : 1 920 pixels
Height : 1 040 pixels
Display aspect ratio : 1.85:1
Frame rate mode : Constant
Frame rate : 23.976 FPS
Color space : YUV
Chroma subsampling : 4:2:0
Bit depth : 8 bits
Scan type : Progressive
Bits/(Pixel*Frame) : 0.199
Stream size : 6.45 GiB (84%)
Writing library : x264 core 144 r2525 40bb568
Encoding settings : cabac=1 / ref=4 / deblock=1:0:0 / analyse=0x3:0x133 / me=umh / subme=7 / psy=1 / psy_rd=1.00:0.00 / mixed_ref=1 / me_range=16 / chroma_me=1 / trellis=1 / 8x8dct=1 / cqm=0 / deadzone=21,11 / fast_pskip=0 / chroma_qp_offset=-2 / threads=60 / lookahead_threads=8 / sliced_threads=0 / nr=0 / decimate=1 / interlaced=0 / bluray_compat=0 / constrained_intra=0 / bframes=3 / b_pyramid=2 / b_adapt=1 / b_bias=0 / direct=1 / weightb=1 / open_gop=0 / weightp=2 / keyint=250 / keyint_min=23 / scenecut=40 / intra_refresh=0 / rc_lookahead=40 / rc=2pass / mbtree=1 / bitrate=9507 / ratetol=1.0 / qcomp=0.60 / qpmin=0 / qpmax=69 / qpstep=4 / cplxblur=20.0 / qblur=0.5 / ip_ratio=1.40 / aq=1:1.00
Language : English
Default : Yes
Forced : No

Audio
ID : 2
Format : DTS
Format/Info : Digital Theater Systems
Mode : 16
Format settings, Endianness : Big
Codec ID : A_DTS
Duration : 1 h 39 min
Bit rate mode : Constant
Bit rate : 1 509 kb/s
Channel(s) : 6 channels
Channel positions : Front: L C R, Side: L R, LFE
Sampling rate : 48.0 kHz
Frame rate : 93.750 FPS (512 spf)
Bit depth : 24 bits
Compression mode : Lossy
Stream size : 1.05 GiB (14%)
Language : English
Default : Yes
Forced : No

Menu
00:00:00.000 : en:00:00:00.000
00:07:23.360 : en:00:07:23.360
00:13:09.914 : en:00:13:09.914
00:17:17.578 : en:00:17:17.578
00:24:35.099 : en:00:24:35.099
00:29:50.998 : en:00:29:50.998
00:33:44.981 : en:00:33:44.981
00:39:45.091 : en:00:39:45.091
00:45:31.896 : en:00:45:31.896
00:51:26.250 : en:00:51:26.250
01:00:09.523 : en:01:00:09.523
01:07:57.156 : en:01:07:57.156
01:14:56.283 : en:01:14:56.283
01:22:21.061 : en:01:22:21.061
01:29:27.195 : en:01:29:27.195
01:33:31.773 : en:01:33:31.773





1 个附件 售价 大小 下载 时间

Laggies.2014.LIMITED.1080p.BluRay.x264-GECKOS.torrent 0 金币 77.00K 693 次 2月前

#1楼
发帖时间:2019-06-18 15:47:16   |   回复数:3
911degrees
隐世仙人♂
非常感谢,谢谢分享
2月前 #2楼
qq262935862
武林高手
谢谢楼主分享
2月前 #3楼
liyouchai
隐世仙人♂
谢谢楼主分享资源
2月前 #4楼
游客组