conanlcg
超级版主

[2016] [欧美] [喜剧] [BD-1080P] 求职记 Get.A.Job.2016.1080p.BluRay.x264-ROVERS 6.57GB

-->

帖子完整标题:求职记 Get.A.Job.2016.1080p.BluRay.x264-ROVERS 6.57GB




◎译  名 求职记
◎片  名 Get a Job
◎年  代 2016
◎产  地 美国
◎类  别 喜剧
◎语  言 英语
◎上映日期 2016-03-25(美国)
◎IMDb评分 5.3/10 from 19243 users
◎IMDb链接 http://www.imdb.com/title/tt1468846
◎豆瓣评分 5.4/10 from 1069 users
◎豆瓣链接 https://movie.douban.com/subject/3842478/
◎片  长 83分钟
◎导  演 迪伦·基德 Dylan Kidd
◎编  剧 凯尔·彭尼坎普 Kyle Pennekamp / 斯科特·特佩尔 Scott Turpel
◎主  演 迈尔斯·特勒 Miles Teller
      安娜·肯德里克 Anna Kendrick
      布莱恩·科兰斯顿 Bryan Cranston
      爱丽森·布里 Alison Brie
      马西娅·盖伊·哈登 Marcia Gay Harden
      拉维·帕特尔 Ravi Patel
      克里斯托夫·梅兹-普莱瑟 Christopher Mintz-Plasse
      乔治·加西亚 Jorge Garcia
      约翰·C·麦金雷 John C. McGinley
      约翰·赵 John Cho
      尼可拉斯·博朗 Nicholas Braun
      卡梅隆·理查德森 Cameron Richardson
      布鲁斯·戴维森 Bruce Davison
      布兰登·T·杰克逊 Brandon T. Jackson
      格雷格·格曼 Greg Germann
      Julianne Alexander


◎标  签 喜剧 | 美国 | 2016 | 青春 | 励志 | 剧情 | 求职 | 独立电影

◎简  介

  一个大学生与他的朋友们想尽各种方法去找工作。不过在当前糟糕的经济形势下,这一切看起来都很难……

Video
ID : 1
Format : AVC
Format/Info : Advanced Video Codec
Format profile : [email protected]
Format settings, CABAC : Yes
Format settings, ReFrames : 4 frames
Codec ID : V_MPEG4/ISO/AVC
Duration : 1h 22mn
Bit rate : 9 837 Kbps
Width : 1 920 pixels
Height : 1 080 pixels
Display aspect ratio : 16:9
Frame rate mode : Constant
Frame rate : 23.976 fps
Color space : YUV
Chroma subsampling : 4:2:0
Bit depth : 8 bits
Scan type : Progressive
Bits/(Pixel*Frame) : 0.198
Stream size : 5.68 GiB (87%)
Writing library : x264 core 148 r2692 64f4e24
Encoding settings : cabac=1 / ref=4 / deblock=1:0:0 / analyse=0x3:0x133 / me=umh / subme=7 / psy=1 / psy_rd=1.00:0.00 / mixed_ref=1 / me_range=16 / chroma_me=1 / trellis=1 / 8x8dct=1 / cqm=0 / deadzone=21,11 / fast_pskip=0 / chroma_qp_offset=-2 / threads=34 / lookahead_threads=5 / sliced_threads=0 / nr=0 / decimate=1 / interlaced=0 / bluray_compat=0 / constrained_intra=0 / bframes=3 / b_pyramid=2 / b_adapt=1 / b_bias=0 / direct=1 / weightb=1 / open_gop=0 / weightp=2 / keyint=250 / keyint_min=23 / scenecut=40 / intra_refresh=0 / rc_lookahead=40 / rc=2pass / mbtree=1 / bitrate=9837 / ratetol=1.0 / qcomp=0.60 / qpmin=0 / qpmax=69 / qpstep=4 / cplxblur=20.0 / qblur=0.5 / ip_ratio=1.40 / aq=1:1.00
Language : English
Default : Yes
Forced : No

Audio
ID : 2
Format : DTS
Format/Info : Digital Theater Systems
Mode : 16
Format settings, Endianness : Big
Codec ID : A_DTS
Duration : 1h 22mn
Bit rate mode : Constant
Bit rate : 1 509 Kbps
Channel(s) : 6 channels
Channel positions : Front: L C R, Side: L R, LFE
Sampling rate : 48.0 KHz
Frame rate : 93.750 fps (512 spf)
Bit depth : 24 bits
Compression mode : Lossy
Stream size : 893 MiB (13%)
Language : English
Default : Yes
Forced : No

Menu
00:00:00.000 : en:00:00:00.000
00:06:13.415 : en:00:06:13.415
00:12:55.984 : en:00:12:55.984
00:18:29.358 : en:00:18:29.358
00:24:29.301 : en:00:24:29.301
00:29:27.975 : en:00:29:27.975
00:36:06.664 : en:00:36:06.664
00:44:14.652 : en:00:44:14.652
00:52:37.821 : en:00:52:37.821
01:01:23.179 : en:01:01:23.179
01:07:12.278 : en:01:07:12.278
01:16:53.317 : en:01:16:53.317





1 个附件 售价 大小 下载 时间

Get.A.Job.2016.1080p.BluRay.x264-ROVERS.torrent 0 金币 132.20K 903 次 2月前

#1楼
发帖时间:2019-06-24 20:44:36   |   回复数:2
liyouchai
隐世仙人♂
谢谢楼主分享资源
2月前 #2楼
911degrees
隐世仙人♂
非常感谢,谢谢分享
2月前 #3楼
游客组