conanlcg
超级版主

[更 早] [香港] [喜剧] [BD-1080P] 太極張三豐 Tai.Chi.Master.1993.1080p.BluRay.x264-SSF 6.56GB

-->

帖子完整标题:太極張三豐 Tai.Chi.Master.1993.1080p.BluRay.x264-SSF 6.56GB




◎译  名 太极张三丰 / Tai ji: Zhang San Feng / The Tai-chi Master / Twin Warriors
◎片  名 太極張三豐
◎年  代 1993
◎产  地 香港
◎类  别 喜剧 / 动作 / 武侠 / 古装
◎语  言 粤语
◎上映日期 1993-11-18(香港)
◎IMDb评分 7.3/10 from 8859 users
◎IMDb链接 http://www.imdb.com/title/tt0108281
◎豆瓣评分 7.7/10 from 82242 users
◎豆瓣链接 https://movie.douban.com/subject/1294561/
◎片  长 96分钟
◎导  演 袁和平 Woo-ping Yuen
◎编  剧 叶广俭 Kwong Kim Yip
◎主  演 李连杰 Jet Li
      杨紫琼 Michelle Yeoh
      钱小豪 Siu-hou Chin
      袁洁莹 Fennie Yuen
      袁祥仁 Cheung-Yan Yuen
      刘洵 Shun Lau
      于海 Hai Yu


◎标  签 李连杰 | 动作 | 香港 | 武侠 | 袁和平 | 功夫 | 1993 | 中国

◎简  介

  宦官弄权的明朝末年,苛税与暴政弄得民不聊生。张君宝(李连杰)与董天宝(钱小豪)是一对自幼在少林寺长大的师兄弟,但两人性格迥异,张君宝善良忠厚,董天宝则狡猾阴险,在争夺进入达摩院修行的资格时,两人因与师伯发生争执,被逐出少林。
出寺后,两人因志向渐不同而分道扬镳,董天宝贪图荣华参军,张君宝则与一群仁人志士一起劫富济贫。为求高官,董天宝向大宦官刘瑾出卖大批旧友,一时间血流成河。为替义士报仇,也为帮民除害,张君宝在秋雪(杨紫琼)的帮助下,从其师傅的气功心法中悟出一套武林奇功“太极拳”,开始勤加练习,准备不日与敌手来场血战。

◎获奖情况

  第30届台北金马影展(1993)
  金马奖 最佳动作设计(提名) 袁和平 / 袁祥仁 / 谷轩昭
  金马奖 最佳剪辑(提名) 林安儿



Video
ID : 1
Format : AVC
Format/Info : Advanced Video Codec
Format profile : [email protected]
Format settings : CABAC / 4 Ref Frames
Format settings, CABAC : Yes
Format settings, ReFrames : 4 frames
Codec ID : V_MPEG4/ISO/AVC
Duration : 1 h 36 min
Bit rate : 9 286 kb/s
Width : 1 920 pixels
Height : 1 080 pixels
Display aspect ratio : 16:9
Frame rate mode : Constant
Frame rate : 23.976 (24000/1001) FPS
Color space : YUV
Chroma subsampling : 4:2:0
Bit depth : 8 bits
Scan type : Progressive
Bits/(Pixel*Frame) : 0.187
Stream size : 6.12 GiB (93%)
Writing library : x264 core 98 r1643 59a9e03
Encoding settings : cabac=1 / ref=4 / deblock=1:0:0 / analyse=0x3:0x133 / me=umh / subme=7 / psy=1 / psy_rd=1.00:0.15 / mixed_ref=1 / me_range=16 / chroma_me=1 / trellis=1 / 8x8dct=1 / cqm=0 / deadzone=21,11 / fast_pskip=0 / chroma_qp_offset=-3 / threads=12 / sliced_threads=0 / nr=0 / decimate=0 / interlaced=0 / constrained_intra=0 / bframes=3 / b_pyramid=2 / b_adapt=1 / b_bias=0 / direct=1 / weightb=1 / weightp=2 / keyint=250 / keyint_min=25 / scenecut=40 / intra_refresh=0 / rc_lookahead=40 / rc=2pass / mbtree=1 / bitrate=9286 / ratetol=1.0 / qcomp=0.60 / qpmin=10 / qpmax=51 / qpstep=4 / cplxblur=20.0 / qblur=0.5 / ip_ratio=1.40 / aq=2:1.00
Language : English
Default : No
Forced : No

Audio
ID : 2
Format : AC-3
Format/Info : Audio Coding 3
Commercial name : Dolby Digital
Codec ID : A_AC3
Duration : 1 h 36 min
Bit rate mode : Constant
Bit rate : 448 kb/s
Channel(s) : 6 channels
Channel layout : L R C LFE Ls Rs
Sampling rate : 48.0 kHz
Frame rate : 31.250 FPS (1536 SPF)
Bit depth : 16 bits
Compression mode : Lossy
Stream size : 310 MiB (5%)
Language : Chinese
Service kind : Complete Main
Default : Yes
Forced : No

Text
ID : 3
Format : UTF-8
Codec ID : S_TEXT/UTF8
Codec ID/Info : UTF-8 Plain Text
Language : English
Default : Yes
Forced : No





1 个附件 售价 大小 下载 时间

Tai.Chi.Master.1993.1080p.BluRay.x264-SSF.torrent 0 金币 33.27K 2702 次 1月前

#1楼
发帖时间:2019-06-26 16:00:06   |   回复数:4
tanchoohoon
武林盟主
感谢楼主的无私分享
1月前 #2楼
liyouchai
隐世仙人♂
谢谢楼主分享资源
1月前 #3楼
911degrees
隐世仙人♂
非常感谢,谢谢分享
1月前 #4楼
jokingcheung
一代宗师
谢谢分享
1月前 #5楼
游客组