conanlcg
超级版主

[2010] [香港] [喜剧] [BD-1080P] 飛砂風中轉 Once.A.Gangster.2010.1080p.BluRay.x264-SSF 6.56GB

-->

帖子完整标题:飛砂風中轉 Once.A.Gangster.2010.1080p.BluRay.x264-SSF 6.56GB




◎译  名 飞砂风中转 / Once a Gangster / 飞沙风中转
◎片  名 飛砂風中轉
◎年  代 2010
◎产  地 香港
◎类  别 喜剧 / 动作 / 犯罪
◎语  言 粤语
◎上映日期 2010-05-20
◎IMDb评分 5.8/10 from 329 users
◎IMDb链接 http://www.imdb.com/title/tt1611840
◎豆瓣评分 6.3/10 from 15457 users
◎豆瓣链接 https://movie.douban.com/subject/4723944/
◎片  长 Hong Kong: 95 分钟
◎导  演 庄文强 Felix Chong
◎编  剧 庄文强 Felix Chong / 杜汶泽 Chapman To / 刘浩良 Ho Leung Lau
◎主  演 郑伊健 Ekin Cheng
      陈小春 Jordan Chan
      方中信 Alex Fong
      余安安 On-on Yu
      叶璇 Michelle Ye
      陈子聪 Conroy Chan
      刘浩龙 Wilfred Lau


◎标  签 香港电影 | 香港 | 陈小春 | 郑伊健 | 黑帮 | 喜剧 | 2010 | 庄文强

◎简  介

  和义盛坐馆火水(方中信 饰)在筛选马仔后备军时,被一个开餐馆的厨师火腩(陈小春 饰)所吸引,后者做的叫花鸡味道鲜美,令他难忘。从此,他对火腩特别照顾,委以重任。找到了保护伞的火腩可以继承祖业,跟妻子(叶璇 饰)夫唱妇随经营义盛小馆,并盘算让儿女进入名校就读。正在此时,金融危机来临,方中信遇到困难,堂主之位不保,此时他希望能够让火腩做接班人,稳定军心。然而,和义盛开山祖师后人十三妹(余安安 饰)却力荐刚出狱的儿子燕子文(郑伊健 饰)出任堂主之位。于是,两个本不想做堂主的后起之秀被架上了PK台。火腩只想安心经营自己的饭店,而燕子文则希望进入大学进修,无心恋战的两人将面临一场怎样的对决呢?

◎获奖情况

  第30届香港电影金像奖(2011)
  最佳女配角(提名) 余安安
  新晋导演 庄文强



Video
ID : 1
Format : AVC
Format/Info : Advanced Video Codec
Format profile : [email protected]
Format settings : CABAC / 4 Ref Frames
Format settings, CABAC : Yes
Format settings, ReFrames : 4 frames
Codec ID : V_MPEG4/ISO/AVC
Duration : 1 h 35 min
Bit rate : 8 354 kb/s
Width : 1 920 pixels
Height : 1 080 pixels
Display aspect ratio : 16:9
Frame rate mode : Constant
Frame rate : 24.000 FPS
Color space : YUV
Chroma subsampling : 4:2:0
Bit depth : 8 bits
Scan type : Progressive
Bits/(Pixel*Frame) : 0.168
Stream size : 5.42 GiB (83%)
Writing library : x264 core 104 r1677 19df41a
Encoding settings : cabac=1 / ref=4 / deblock=1:0:0 / analyse=0x3:0x133 / me=umh / subme=7 / psy=1 / psy_rd=1.00:0.15 / mixed_ref=1 / me_range=16 / chroma_me=1 / trellis=1 / 8x8dct=1 / cqm=0 / deadzone=21,11 / fast_pskip=0 / chroma_qp_offset=-3 / threads=12 / sliced_threads=0 / nr=0 / decimate=1 / interlaced=0 / constrained_intra=0 / bframes=3 / b_pyramid=2 / b_adapt=1 / b_bias=0 / direct=1 / weightb=1 / open_gop=0 / weightp=2 / keyint=250 / keyint_min=24 / scenecut=40 / intra_refresh=0 / rc_lookahead=40 / rc=2pass / mbtree=1 / bitrate=8354 / ratetol=1.0 / qcomp=0.60 / qpmin=10 / qpmax=51 / qpstep=4 / cplxblur=20.0 / qblur=0.5 / ip_ratio=1.40 / aq=1:1.00
Language : English
Default : No
Forced : No

Audio
ID : 2
Format : DTS
Format/Info : Digital Theater Systems
Codec ID : A_DTS
Duration : 1 h 35 min
Bit rate mode : Constant
Bit rate : 1 509 kb/s
Channel(s) : 6 channels
Channel layout : C L R Ls Rs LFE
Sampling rate : 48.0 kHz
Frame rate : 93.750 FPS (512 SPF)
Bit depth : 16 bits
Compression mode : Lossy
Stream size : 1.00 GiB (15%)
Language : Chinese
Default : Yes
Forced : No

Text
ID : 3
Format : UTF-8
Codec ID : S_TEXT/UTF8
Codec ID/Info : UTF-8 Plain Text
Language : English
Default : Yes
Forced : No





1 个附件 售价 大小 下载 时间

Once.A.Gangster.2010.1080p.BluRay.x264-SSF.torrent 0 金币 33.27K 1540 次 1月前

#1楼
发帖时间:2019-06-26 16:04:06   |   回复数:4
liyouchai
隐世仙人♂
谢谢楼主分享资源
1月前 #2楼
rubycon
江湖小虾
多谢,不错啊。。。。。。。
1月前 #3楼
911degrees
隐世仙人♂
非常感谢,谢谢分享
1月前 #4楼
jokingcheung
一代宗师
谢谢分享
1月前 #5楼
游客组