conanlcg
超级版主

[2010] [其他] [剧情] [BD-1080P] 杜拉拉升职记 Go.Lala.Go.2010.1080p.BluRay.x264-SSF 7.94GB

-->

帖子完整标题:杜拉拉升职记 Go.Lala.Go.2010.1080p.BluRay.x264-SSF 7.94GB




◎译  名 Go LaLa Go!
◎片  名 杜拉拉升职记
◎年  代 2010
◎产  地 中国大陆
◎类  别 剧情 / 喜剧 / 爱情
◎语  言 汉语普通话 / 英语
◎上映日期 2010-04-15(中国大陆)
◎IMDb评分 5.1/10 from 597 users
◎IMDb链接 http://www.imdb.com/title/tt1621780
◎豆瓣评分 5.6/10 from 191640 users
◎豆瓣链接 https://movie.douban.com/subject/3820191/
◎片  长 105分钟
◎导  演 徐静蕾 Jinglei Xu
◎编  剧 王芸 Yun Wang / 赵梦 Meng Zhao / 徐静蕾 Jinglei Xu
◎主  演 徐静蕾 Jinglei Xu
      黄立行 Stanley Huang
      莫文蔚 Karen Mok
      吴佩慈 Pace Wu
      李艾 Ai Li
      王菁锳
      罗异


◎标  签 徐静蕾 | 杜拉拉升职记 | 爱情 | 黄立行 | 中国电影 | 莫文蔚 | 中国 | 大陆

◎简  介

  杜拉拉(徐静蕾 饰)是个初入职场的小白领,由于前任老板总是对她性骚扰,所以她决定跳槽,进入了著名跨国企业DB。DB的销售部金牌经理王伟(黄立行 饰)与HR副总监玫瑰(莫文蔚 饰)是一对地下情人,但是由于两人的工作压力都很大,以至于谁也无暇顾及家庭,双方大方分手。杜拉拉刚来DB,遇到了互相斗法的伊娃(李艾 饰)和海伦(吴佩慈 饰)。因为一次巧合,在电梯里邂逅了患有幽闭恐惧症的王伟,两人从此熟识。因为总公司高层要来中国分公司视察,因此中国区总经理和HR主管商量要重新装修公司。然而玫瑰却在此时患病需要动手术,其他人也避之不及,唯有初出茅庐的杜拉拉勇挑重担,并以其坚强不屈完成了这个重大的任务,受到了上司的赏识。而且,公司还在泰国举办了庆祝派对,期间杜拉拉与王伟擦出了爱情的火花,但是这段办公室恋情却遭遇了重重的阻力……
本片是徐静蕾的第四部导演作品,根据李可同名畅销小说改编。

◎获奖情况

  第31届大众电影百花奖(2012)
  最佳故事片(提名)
  最佳女配角(提名) 莫文蔚
  最佳新人(提名) 李艾

  第14届中国电影华表奖(2011)
  优秀故事片奖(提名)



Video
ID : 1
Format : AVC
Format/Info : Advanced Video Codec
Format profile : [email protected]
Format settings : CABAC / 4 Ref Frames
Format settings, CABAC : Yes
Format settings, ReFrames : 4 frames
Codec ID : V_MPEG4/ISO/AVC
Duration : 1 h 45 min
Bit rate : 9 309 kb/s
Width : 1 920 pixels
Height : 872 pixels
Display aspect ratio : 2.2:1
Frame rate mode : Constant
Frame rate : 24.000 FPS
Color space : YUV
Chroma subsampling : 4:2:0
Bit depth : 8 bits
Scan type : Progressive
Bits/(Pixel*Frame) : 0.232
Stream size : 6.67 GiB (84%)
Writing library : x264 core 98 r1643 59a9e03
Encoding settings : cabac=1 / ref=4 / deblock=1:0:0 / analyse=0x3:0x133 / me=umh / subme=7 / psy=1 / psy_rd=1.00:0.15 / mixed_ref=1 / me_range=16 / chroma_me=1 / trellis=1 / 8x8dct=1 / cqm=0 / deadzone=21,11 / fast_pskip=0 / chroma_qp_offset=-3 / threads=12 / sliced_threads=0 / nr=0 / decimate=0 / interlaced=0 / constrained_intra=0 / bframes=3 / b_pyramid=2 / b_adapt=1 / b_bias=0 / direct=1 / weightb=1 / weightp=2 / keyint=250 / keyint_min=25 / scenecut=40 / intra_refresh=0 / rc_lookahead=40 / rc=2pass / mbtree=1 / bitrate=9309 / ratetol=1.0 / qcomp=0.60 / qpmin=10 / qpmax=51 / qpstep=4 / cplxblur=20.0 / qblur=0.5 / ip_ratio=1.40 / aq=2:1.00
Language : English
Default : No
Forced : No

Audio
ID : 2
Format : DTS
Format/Info : Digital Theater Systems
Codec ID : A_DTS
Duration : 1 h 45 min
Bit rate mode : Constant
Bit rate : 1 509 kb/s
Channel(s) : 6 channels
Channel layout : C L R Ls Rs LFE
Sampling rate : 48.0 kHz
Frame rate : 93.750 FPS (512 SPF)
Bit depth : 16 bits
Compression mode : Lossy
Stream size : 1.11 GiB (14%)
Language : Chinese
Default : Yes
Forced : No

Text
ID : 3
Format : UTF-8
Codec ID : S_TEXT/UTF8
Codec ID/Info : UTF-8 Plain Text
Language : English
Default : Yes
Forced : No





1 个附件 售价 大小 下载 时间

Go.Lala.Go.2010.1080p.BluRay.x264-SSF.torrent 0 金币 40.16K 812 次 5月前

#1楼
发帖时间:2019-06-26 16:06:09   |   回复数:2
liyouchai
隐世仙人♂
谢谢楼主分享资源
5月前 #2楼
911degrees
隐世仙人♂
非常感谢,谢谢分享
5月前 #3楼
游客组