conanlcg
超级版主

[更 早] [香港] [喜剧] [BD-1080P] 鬼馬雙星 Games.Gamblers.Play.1974.1080p.BluRay.x264-REGRET 7.65GB

-->

帖子完整标题:鬼馬雙星 Games.Gamblers.Play.1974.1080p.BluRay.x264-REGRET 7.65GB




◎译  名 鬼马双星 / Games Gamblers Play
◎片  名 鬼馬雙星
◎年  代 1974
◎产  地 香港
◎类  别 喜剧
◎语  言 粤语
◎上映日期 1974-10-17
◎IMDb评分 6.7/10 from 155 users
◎IMDb链接 http://www.imdb.com/title/tt0071588
◎豆瓣评分 7.3/10 from 4294 users
◎豆瓣链接 https://movie.douban.com/subject/1301997/
◎片  长 107 分钟
◎导  演 许冠文 Michael Hui
◎编  剧 刘天赐 Tin-Chi Lau / 许冠文 Michael Hui / 邓伟雄 Weixiong Deng
◎主  演 许冠文 Michael Hui
      许冠杰 Samuel Hui
      许冠英 Ricky Hui
      吕有慧 Yau-wai Lui
      乔宏 Roy Chiao
      罗兰 Lan Law
      丁佩 Betty Ting Pei
      许绍雄 Siu-Hung Hui


◎标  签 香港 | 喜剧 | 许氏喜剧 | 1974 | 经典 | 黑色幽默 | 搞笑 | 中国

◎简  介

  这是香港70年代的典型武打搞笑片。老千邓国文(许冠文 饰)经常出入于监狱,狱中无聊时,他经常会表演一些自己的千术以资同仓的犯人解闷。犯人刘俊杰(许冠杰 饰)对国文的千术十分佩服,希望出狱后能和他一起合作挣大钱。国文并没有答应,因为老千一般都独来独往。
两人出狱后,俊杰组织了一帮老千和国文对赌,国文通过一早买通在场的舞女佩佩将他们击败。俊杰更加佩服国文,再次提出两人合作。国文抵不住他的死缠烂打,终于应承了。两人计划向城中恶霸大哥全下手,为了筹集赌资,他们还参加了电视台的有奖游戏,国文凭借聪明的头脑顺利的赢下了奖金。和大哥全对赌的日子到了。

Video
ID : 1
Format : AVC
Format/Info : Advanced Video Codec
Format profile : [email protected]
Format settings : CABAC / 5 Ref Frames
Format settings, CABAC : Yes
Format settings, ReFrames : 5 frames
Codec ID : V_MPEG4/ISO/AVC
Duration : 1 h 47 min
Bit rate : 8 695 kb/s
Width : 1 920 pixels
Height : 808 pixels
Display aspect ratio : 2.40:1
Frame rate mode : Constant
Frame rate : 23.976 (24000/1001) FPS
Color space : YUV
Chroma subsampling : 4:2:0
Bit depth : 8 bits
Scan type : Progressive
Bits/(Pixel*Frame) : 0.234
Stream size : 6.52 GiB (85%)
Writing library : x264 core 157 r2935 545de2f
Encoding settings : cabac=1 / ref=5 / deblock=1:-3:-3 / analyse=0x3:0x133 / me=umh / subme=9 / psy=1 / psy_rd=1.00:0.00 / mixed_ref=1 / me_range=16 / chroma_me=1 / trellis=2 / 8x8dct=1 / cqm=0 / deadzone=21,11 / fast_pskip=0 / chroma_qp_offset=-2 / threads=24 / lookahead_threads=2 / sliced_threads=0 / nr=0 / decimate=1 / interlaced=0 / bluray_compat=0 / constrained_intra=0 / bframes=3 / b_pyramid=2 / b_adapt=1 / b_bias=0 / direct=3 / weightb=1 / open_gop=0 / weightp=2 / keyint=240 / keyint_min=24 / scenecut=40 / intra_refresh=0 / rc_lookahead=50 / rc=2pass / mbtree=1 / bitrate=8695 / ratetol=1.0 / qcomp=0.60 / qpmin=0 / qpmax=69 / qpstep=4 / cplxblur=20.0 / qblur=0.5 / ip_ratio=1.40 / aq=1:1.00
Language : English
Default : Yes
Forced : No

Audio
ID : 2
Format : DTS
Format/Info : Digital Theater Systems
Codec ID : A_DTS
Duration : 1 h 47 min
Bit rate mode : Constant
Bit rate : 1 509 kb/s
Channel(s) : 6 channels
Channel layout : C L R Ls Rs LFE
Sampling rate : 48.0 kHz
Frame rate : 93.750 FPS (512 SPF)
Bit depth : 24 bits
Compression mode : Lossy
Stream size : 1.13 GiB (15%)
Language : Chinese
Default : Yes
Forced : No

Text
ID : 3
Format : UTF-8
Codec ID : S_TEXT/UTF8
Codec ID/Info : UTF-8 Plain Text
Duration : 1 h 45 min
Bit rate : 33 b/s
Count of elements : 1219
Stream size : 25.9 KiB (0%)
Title : English
Language : English
Default : Yes
Forced : Yes

Menu
00:00:00.000 : en:00:00:00.000
00:04:18.842 : en:00:04:18.842
00:10:09.984 : en:00:10:09.984
00:14:02.175 : en:00:14:02.175
00:20:48.956 : en:00:20:48.956
00:25:03.001 : en:00:25:03.001
00:29:06.286 : en:00:29:06.286
00:34:28.275 : en:00:34:28.275
00:39:34.831 : en:00:39:34.831
00:46:58.816 : en:00:46:58.816
00:54:22.092 : en:00:54:22.092
00:57:48.048 : en:00:57:48.048
01:02:35.710 : en:01:02:35.710
01:09:05.016 : en:01:09:05.016
01:11:38.252 : en:01:11:38.252
01:19:03.572 : en:01:19:03.572
01:24:34.403 : en:01:24:34.403
01:31:18.181 : en:01:31:18.181
01:36:22.735 : en:01:36:22.735
01:40:44.372 : en:01:40:44.372





1 个附件 售价 大小 下载 时间

Games.Gamblers.Play.1974.1080p.BluRay.x264-REGRET.torrent 0 金币 38.76K 1400 次 5月前

#1楼
发帖时间:2019-06-26 16:22:09   |   回复数:2
liyouchai
隐世仙人♂
谢谢楼主分享资源
5月前 #2楼
911degrees
隐世仙人♂
非常感谢,谢谢分享
5月前 #3楼
游客组