conanlcg
超级版主

[更 早] [香港] [动作] [BD-1080P] 爆裂刑警 Bullets.over.Summer.1999.CHINESE.1080p.BluRay.x264.DTS-FGT 8.44GB

-->

帖子完整标题:爆裂刑警 Bullets.over.Summer.1999.CHINESE.1080p.BluRay.x264.DTS-FGT 8.44GB




◎译  名 Bullets Over Summer
◎片  名 爆裂刑警
◎年  代 1999
◎产  地 香港
◎类  别 动作 / 爱情 / 犯罪
◎语  言 粤语 / 普通话
◎上映日期 1999-08-05(香港)
◎IMDb评分 6.7/10 from 545 users
◎IMDb链接 http://www.imdb.com/title/tt0214555
◎豆瓣评分 7.6/10 from 14736 users
◎豆瓣链接 https://movie.douban.com/subject/1304837/
◎片  长 92分钟
◎导  演 叶伟信 Wilson Yip
◎编  剧 邹凯光 Matt Chow / 叶伟信 Wilson Yip / 张问
◎主  演 吴镇宇 Francis Ng
      古天乐 Louis Koo
      郑雪儿 Michelle Saram
      罗兰 Lan Law
      邹凯光 Matt Chow
      黄德斌 Tak-bun Wong
      林美贞 Stephenie
      李耀明 Joe Lee Yiu-ming


◎标  签 吴镇宇 | 香港 | 香港电影 | 古天乐 | 叶伟信 | 警匪 | 动作 | 1999

◎简  介

  刑警Mike(吴镇宇 饰)和阿仁(古天乐 饰)是一对拍档兼好兄弟,两人一个性格孤僻、沉默寡言,一个玩世不恭、愤世嫉俗,均不得上司赏识。为了缉捕劫匪“毒龙”一伙,两人在独居老人四婆(罗兰 饰)家中布置了监控装置。期间,孤儿院长大的Mike结识了被男友遗弃的孕妇Jennifer(林美贞 饰),表示愿做孩子的父亲,而阿仁也结识靓妹阿Yen(郑雪儿 饰)。
不久,Mike知晓自己身染绝症,来日已经不多,为了Jennifer以后的生活,他与“毒龙”私下进行交易获得鉅款。同时,不忘职责的他又将“毒龙”的行踪通知阿仁,并与之一起同“毒龙”展开搏杀。

◎获奖情况

  第19届香港电影金像奖(2000)
  最佳男主角(提名) 吴镇宇
  最佳女主角 罗兰
  最佳音响效果(提名) 廖家文 / 郑颖园



Video
ID : 1
Format : AVC
Format/Info : Advanced Video Codec
Format profile : [email protected]
Format settings : CABAC / 4 Ref Frames
Format settings, CABAC : Yes
Format settings, ReFrames : 4 frames
Codec ID : V_MPEG4/ISO/AVC
Duration : 1 h 32 min
Bit rate : 11.5 Mb/s
Width : 1 920 pixels
Height : 1 080 pixels
Display aspect ratio : 16:9
Frame rate mode : Constant
Frame rate : 23.976 (24000/1001) FPS
Color space : YUV
Chroma subsampling : 4:2:0
Bit depth : 8 bits
Scan type : Progressive
Bits/(Pixel*Frame) : 0.231
Stream size : 7.46 GiB (88%)
Title : Bullets.over.Summer.1999.CHINESE.1080p.BluRay.x264.DTS-FGT
Writing library : x264 core 148 r2795M aaa9aa8
Encoding settings : cabac=1 / ref=4 / deblock=1:-2:-2 / analyse=0x3:0x113 / me=umh / subme=9 / psy=1 / psy_rd=1.00:0.15 / mixed_ref=1 / me_range=16 / chroma_me=1 / trellis=2 / 8x8dct=1 / cqm=0 / deadzone=21,11 / fast_pskip=1 / chroma_qp_offset=-3 / threads=24 / lookahead_threads=3 / sliced_threads=0 / nr=0 / decimate=1 / interlaced=0 / bluray_compat=0 / constrained_intra=0 / bframes=3 / b_pyramid=2 / b_adapt=1 / b_bias=0 / direct=3 / weightb=1 / open_gop=0 / weightp=2 / keyint=250 / keyint_min=25 / scenecut=40 / intra_refresh=0 / rc_lookahead=50 / rc=2pass / mbtree=1 / bitrate=11500 / ratetol=1.0 / qcomp=0.60 / qpmin=0 / qpmax=69 / qpstep=4 / cplxblur=20.0 / qblur=0.5 / vbv_maxrate=31250 / vbv_bufsize=31250 / nal_hrd=none / filler=0 / ip_ratio=1.40 / aq=1:1.00
Language : Chinese
Default : Yes
Forced : No

Audio
ID : 2
Format : DTS
Format/Info : Digital Theater Systems
Codec ID : A_DTS
Duration : 1 h 32 min
Bit rate mode : Constant
Bit rate : 1 509 kb/s
Channel(s) : 2 channels
Channel layout : L R
Sampling rate : 48.0 kHz
Frame rate : 93.750 FPS (512 SPF)
Bit depth : 16 bits
Compression mode : Lossy
Stream size : 1 002 MiB (12%)
Title : Bullets.over.Summer.1999.CHINESE.1080p.BluRay.x264.DTS-FGT
Language : Chinese
Default : Yes
Forced : No

Text
ID : 3
Format : UTF-8
Codec ID : S_TEXT/UTF8
Codec ID/Info : UTF-8 Plain Text
Duration : 1 h 29 min
Bit rate : 39 b/s
Count of elements : 863
Stream size : 25.8 KiB (0%)
Language : English
Default : Yes
Forced : No

Menu
00:00:00.000 : en:Chapter 01
00:04:34.357 : en:Chapter 02
00:07:12.348 : en:Chapter 03
00:12:24.577 : en:Chapter 04
00:16:36.120 : en:Chapter 05
00:23:09.012 : en:Chapter 06
00:30:18.399 : en:Chapter 07
00:36:05.955 : en:Chapter 08
00:42:45.229 : en:Chapter 09
00:51:03.185 : en:Chapter 10
00:57:20.103 : en:Chapter 11
01:00:55.193 : en:Chapter 12
01:04:43.421 : en:Chapter 13
01:10:41.904 : en:Chapter 14
01:16:02.224 : en:Chapter 15
01:18:08.767 : en:Chapter 16
01:24:07.667 : en:Chapter 17
01:28:27.635 : en:Chapter 18





1 个附件 售价 大小 下载 时间

Bullets.over.Summer.1999.CHINESE.1080p.BluRay.x264.DTS-FGT.torrent 0 金币 42.72K 2478 次 1月前

#1楼
发帖时间:2019-06-26 16:58:09   |   回复数:4
liyouchai
隐世仙人♂
谢谢楼主分享资源
1月前 #2楼
rubycon
江湖小虾
谢谢,不错啊。
1月前 #3楼
911degrees
隐世仙人♂
非常感谢,谢谢分享
1月前 #4楼
jokingcheung
一代宗师
谢谢分享
1月前 #5楼
游客组