conanlcg
超级版主

[2010] [香港] [动作] [BD-1080P] 撕票風雲 Black.Ransom.2010.1080p.BluRay.x264-SSF 6.55GB

-->

帖子完整标题:撕票風雲 Black.Ransom.2010.1080p.BluRay.x264-SSF 6.55GB




◎译  名 撕票风云 / Black Ransom / 变种警察 / 黑白战警
◎片  名 撕票風雲
◎年  代 2010
◎产  地 香港
◎类  别 动作 / 惊悚
◎语  言 粤语
◎上映日期 2010-01-07
◎IMDb评分 5.8/10 from 476 users
◎IMDb链接 http://www.imdb.com/title/tt1572168
◎豆瓣评分 5.9/10 from 7599 users
◎豆瓣链接 https://movie.douban.com/subject/4189695/
◎片  长 93 分钟
◎导  演 姜国民
◎编  剧 王晶
◎主  演 苗侨伟
      任达华
      陈法拉
      刘洋
      安志杰
      黄德斌
      瞿颖
      王子涵
      释行宇
      陈宝辕


◎标  签 香港电影 | 香港 | 警匪 | 任达华 | 苗侨伟 | 动作 | 犯罪 | 2010

◎简  介

  连串黑帮老大遭绑架、勒索以及撕票,警方对此案调查毫无头绪。警队B组队长张博文(任达华 饰)曾为警队立下汗马功勋,但从其妻子遭黑帮报复被杀后,加上A组队长的排挤,他开始消极处世。警方接到报案,又一黑帮头目遭绑架,新任总警司古国强(陈法拉 饰)召集两组人马对此案展开全面侦察。由于A组队长轻敌,加之犯罪分子做案手法高明,配合严密,在一次行动中警方遭受重创。此时,在古警司的请求下,张博文带领手下仅有的两名探员开始暗中调查此案。经过慎密调查之后,张博文把犯罪分子的头目目标锁定为曾为警方督察的何湛森(苗侨伟 饰),他的手下包括多名原飞虎队成员,而何湛森绑架黑帮老大的真实目的是为其被黑帮报复杀害的弟弟的报仇……

Video
ID : 1
Format : AVC
Format/Info : Advanced Video Codec
Format profile : [email protected]
Format settings : CABAC / 5 Ref Frames
Format settings, CABAC : Yes
Format settings, ReFrames : 5 frames
Codec ID : V_MPEG4/ISO/AVC
Duration : 1 h 32 min
Bit rate : 8 641 kb/s
Width : 1 920 pixels
Height : 816 pixels
Display aspect ratio : 2.35:1
Frame rate mode : Constant
Frame rate : 24.000 FPS
Color space : YUV
Chroma subsampling : 4:2:0
Bit depth : 8 bits
Scan type : Progressive
Bits/(Pixel*Frame) : 0.230
Stream size : 5.45 GiB (83%)
Writing library : x264 core 98 r1643 59a9e03
Encoding settings : cabac=1 / ref=5 / deblock=1:0:0 / analyse=0x3:0x133 / me=umh / subme=7 / psy=1 / psy_rd=1.00:0.15 / mixed_ref=1 / me_range=16 / chroma_me=1 / trellis=1 / 8x8dct=1 / cqm=0 / deadzone=21,11 / fast_pskip=0 / chroma_qp_offset=-3 / threads=12 / sliced_threads=0 / nr=0 / decimate=0 / interlaced=0 / constrained_intra=0 / bframes=3 / b_pyramid=2 / b_adapt=1 / b_bias=0 / direct=1 / weightb=1 / weightp=2 / keyint=250 / keyint_min=25 / scenecut=40 / intra_refresh=0 / rc_lookahead=40 / rc=2pass / mbtree=1 / bitrate=8641 / ratetol=1.0 / qcomp=0.60 / qpmin=10 / qpmax=51 / qpstep=4 / cplxblur=20.0 / qblur=0.5 / ip_ratio=1.40 / aq=2:1.00
Language : English
Default : No
Forced : No

Audio
ID : 2
Format : DTS
Format/Info : Digital Theater Systems
Codec ID : A_DTS
Duration : 1 h 32 min
Bit rate mode : Constant
Bit rate : 1 509 kb/s
Channel(s) : 6 channels
Channel layout : C L R Ls Rs LFE
Sampling rate : 48.0 kHz
Frame rate : 93.750 FPS (512 SPF)
Bit depth : 16 bits
Compression mode : Lossy
Stream size : 998 MiB (15%)
Language : Chinese
Default : Yes
Forced : No

Text
ID : 3
Format : UTF-8
Codec ID : S_TEXT/UTF8
Codec ID/Info : UTF-8 Plain Text
Language : English
Default : Yes
Forced : No





1 个附件 售价 大小 下载 时间

Black.Ransom.2010.1080p.BluRay.x264-SSF.torrent 0 金币 33.24K 1904 次 5月前

#1楼
发帖时间:2019-06-26 17:00:10   |   回复数:5
tanchoohoon
武林盟主
感谢楼主的无私分享
5月前 #2楼
liyouchai
隐世仙人♂
谢谢楼主分享资源
5月前 #3楼
rubycon
江湖小虾
多谢,下载了。
5月前 #4楼
911degrees
隐世仙人♂
非常感谢,谢谢分享
5月前 #5楼
dio
小有名气
感谢楼主的无私分享
5月前 #6楼
游客组