conanlcg
超级版主

[2014] [欧美] [剧情] [BD-1080P] 我们假期做了什么/探亲之夏 What.We.Did.on.Our.Holiday.2014.1080p.BluRay.x264-AMIABLE 6.56GB

-->

帖子完整标题:我们假期做了什么/探亲之夏 What.We.Did.on.Our.Holiday.2014.1080p.BluRay.x264-AMIABLE 6.56GB




◎译  名 我们假期做了什么 / 探亲之夏
◎片  名 What We Did On Our Holiday
◎年  代 2014
◎产  地 英国
◎类  别 剧情 / 喜剧
◎语  言 英语
◎上映日期 2014-09-26(英国)
◎IMDb评分 6.9/10 from 17127 users
◎IMDb链接 http://www.imdb.com/title/tt2725962
◎豆瓣评分 7.9/10 from 8340 users
◎豆瓣链接 https://movie.douban.com/subject/24695390/
◎片  长 95分钟
◎导  演 Andy Hamilton / 盖·简金 Guy Jenkin
◎编  剧 Andy Hamilton / 盖·简金 Guy Jenkin
◎主  演 大卫·田纳特 David Tennant
      罗莎蒙德·派克 Rosamund Pike
      比利·康诺利 Billy Connolly
      本·米勒 Ben Miller
      Amelia Bullmore
      Harriet Turnbull
      Bobby Smalldridge
      Emilia Jones
      本·普雷斯利 Ben Presley


◎标  签 英国 | 喜剧 | 家庭 | 英国电影 | 温情 | 剧情 | 2014 | 电影

◎简  介

  道格(大卫·田纳特 David Tennant 饰)和妻子阿比(裴淳华 Rosamund Pike 饰)带着三个孩子,一家五口自驾去遥远的苏格兰高地为道格的父亲戈蒂(比利·康诺利 Billy Connolly 饰)庆祝生日。他们的大女儿是一个总把重要事情记录在日记本上的严谨女孩,弟弟是一个酷爱读书的男孩,小女儿则是一个走到哪里都要带着她的两块大石头,随时跟它们说话的萌妹子。老爷子与道格的哥嫂同住,而哥嫂家暗藏的矛盾也不可小觑。父亲知道自己的病情将不久于人世,他早已厌倦了家人们的争吵,也不想参加特意为他准备的生日聚会。大人们都在紧张的筹备着父亲的生日。没想到的是,生日当天,父亲不顾家人反对,执意带着三个孩子去海边玩耍。而接下来发生的事情,不仅让沉浸在生日会欢乐气氛中的大人们难以置信,更会让你从搞笑喜剧的情节中瞬间出戏,转而面对残酷的死亡话题。

Video
ID : 1
Format : AVC
Format/Info : Advanced Video Codec
Format profile : [email protected]
Format settings : CABAC / 4 Ref Frames
Format settings, CABAC : Yes
Format settings, ReFrames : 4 frames
Codec ID : V_MPEG4/ISO/AVC
Duration : 1 h 35 min
Bit rate : 9 068 kb/s
Width : 1 920 pixels
Height : 1 040 pixels
Display aspect ratio : 1.85:1
Frame rate mode : Constant
Frame rate : 23.976 (24000/1001) FPS
Color space : YUV
Chroma subsampling : 4:2:0
Bit depth : 8 bits
Scan type : Progressive
Bits/(Pixel*Frame) : 0.189
Stream size : 5.92 GiB (90%)
Writing library : x264 core 144 r2525 40bb568
Encoding settings : cabac=1 / ref=4 / deblock=1:-3:-3 / analyse=0x3:0x113 / me=umh / subme=8 / psy=1 / psy_rd=1.00:0.00 / mixed_ref=1 / me_range=16 / chroma_me=1 / trellis=1 / 8x8dct=1 / cqm=0 / deadzone=21,11 / fast_pskip=1 / chroma_qp_offset=-2 / threads=12 / lookahead_threads=2 / sliced_threads=0 / nr=0 / decimate=1 / interlaced=0 / bluray_compat=0 / constrained_intra=0 / bframes=3 / b_pyramid=2 / b_adapt=2 / b_bias=0 / direct=3 / weightb=1 / open_gop=0 / weightp=2 / keyint=240 / keyint_min=24 / scenecut=40 / intra_refresh=0 / rc_lookahead=50 / rc=2pass / mbtree=1 / bitrate=9068 / ratetol=1.0 / qcomp=0.60 / qpmin=0 / qpmax=69 / qpstep=4 / cplxblur=20.0 / qblur=0.5 / ip_ratio=1.40 / aq=1:1.00
Language : English
Default : Yes
Forced : No

Audio
ID : 2
Format : DTS
Format/Info : Digital Theater Systems
Codec ID : A_DTS
Duration : 1 h 35 min
Bit rate mode : Constant
Bit rate : 768 kb/s
Channel(s) : 6 channels
Channel positions : Front: L C R, Side: L R, LFE
Sampling rate : 48.0 kHz
Frame rate : 93.750 FPS (512 SPF)
Bit depth : 24 bits
Compression mode : Lossy
Stream size : 524 MiB (8%)
Language : English
Default : Yes
Forced : No

Text #1
ID : 3
Format : UTF-8
Codec ID : S_TEXT/UTF8
Codec ID/Info : UTF-8 Plain Text
Title : SDH
Language : English
Default : No
Forced : No

Text #2
ID : 4
Format : UTF-8
Codec ID : S_TEXT/UTF8
Codec ID/Info : UTF-8 Plain Text
Language : English
Default : No
Forced : No

Menu
00:00:00.000 : en:00:00:00.000
00:08:18.081 : en:00:08:18.081
00:15:24.590 : en:00:15:24.590
00:22:36.897 : en:00:22:36.897
00:31:19.377 : en:00:31:19.377
00:37:51.311 : en:00:37:51.311
00:45:47.870 : en:00:45:47.870
00:52:39.239 : en:00:52:39.239
01:01:47.454 : en:01:01:47.454
01:07:24.749 : en:01:07:24.749
01:15:55.426 : en:01:15:55.426
01:25:00.679 : en:01:25:00.679





1 个附件 售价 大小 下载 时间

What.We.Did.on.Our.Holiday.2014.1080p.BluRay.x264-AMIABLE.torrent 0 金币 66.12K 399 次 5月前

#1楼
发帖时间:2019-06-26 17:12:18   |   回复数:3
二月妙
一派掌门

探亲的路上,一路的可爱

5月前 #2楼
liyouchai
隐世仙人♂
谢谢楼主分享资源
5月前 #3楼
911degrees
隐世仙人♂
非常感谢,谢谢分享
5月前 #4楼
游客组