conanlcg
超级版主

[2019] [欧美] [奇幻] [4K-原盘] 小飞象/小飞象真人版 Dumbo.2019.2160p.BluRay.REMUX.HEVC.DTS-HD.MA.TrueHD.7.1.Atmos-FGT 57.

-->

帖子完整标题:小飞象/小飞象真人版 Dumbo.2019.2160p.BluRay.REMUX.HEVC.DTS-HD.MA.TrueHD.7.1.Atmos-FGT 57.18GB




◎译  名 小飞象 / 小飞象真人版
◎片  名 Dumbo
◎年  代 2019
◎产  地 美国
◎类  别 奇幻 / 冒险
◎语  言 英语
◎上映日期 2019-03-29(美国/中国大陆)
◎IMDb评分 6.5/10 from 26607 users
◎IMDb链接 http://www.imdb.com/title/tt3861390
◎豆瓣评分 6.8/10 from 27773 users
◎豆瓣链接 https://movie.douban.com/subject/25924056/
◎片  长 112分钟
◎导  演 蒂姆·波顿 Tim Burton
◎编  剧 伊伦·克鲁格 Ehren Kruger
◎主  演 伊娃·格林 Eva Green
      科林·法瑞尔 Colin Farrell
      迈克尔·基顿 Michael Keaton
      妮可·帕克 Nico Parker
      芬利·霍宾斯 Finley Hobbins
      丹尼·德维托 Danny DeVito
      艾伦·阿金 Alan Arkin
      卡米尔·雷米泽斯基 Kamil Lemieszewski
      约瑟夫·盖特 Joseph Gatt
      桑迪·马丁 Sandy Martin
      乔·奥斯蒙德 Jo Osmond
      莎朗·鲁妮 Sharon Rooney
      拉斯·艾丁格 Lars Eidinger
      罗珊·塞斯 Roshan Seth
      道比·欧帕瑞 Deobia Oparei
      迈克尔·巴佛 Michael Buffer
      Jessie Vinning
      伯纳多·桑托斯 Bernardo Santos
      Bern Colla?o
      文森特·阿德里安 Vincent Andriano
      菲利普·罗施 Philip Rosch
      露西·德维托 Lucy DeVito
      Lampros Kalfuntzos
      Amerjit Deu
      Stephen Samson
      埃里克·海登 Erick Hayden


◎标  签 迪士尼 | 温情 | 童话 | 奇幻 | 美国 | 真人版 | 动画 | 2019

◎简  介

  迪士尼全新真人版《小飞象》改编自1941年推出的迪士尼同名经典动画,讲述了生来因一双大耳朵而遭人嘲笑的小飞象,在众人的帮助下逐渐拥抱自己的与众不同,成就一段逆风翱翔的暖心传奇。
一位前马戏团明星,刚从战争前线归来,霍特·法瑞尔(科林·法瑞尔饰)在一家艰难经营的马戏团谋得一份工作,负责照顾刚出生的小象,带着两个善良的孩子,女儿米莉·法瑞尔(尼科·帕克饰)和儿子乔·法瑞尔(芬利·霍宾斯饰),两个孩子和另外一个女孩玛茜特(蔡慧泉饰)与小飞象成为朋友, 帮助小飞象找到妈妈。
当人们发现小象会飞后,马戏团重复生机,更吸引到一个充满心机的生意人文德维尔(迈克尔·基顿饰)的注意,他把小飞象雇佣到他的大型游乐场Dreamland,与杂技演员柯莱特·马钱特(伊娃·格林饰)做搭档,人气达到新高度,然而霍特·法瑞尔发现,游乐场光鲜亮丽的背后,充满种种见不得人的秘密。


Video
ID : 1
Format : HEVC
Format/Info : High Efficiency Video Coding
Commercial name : HDR10
Format profile : Main [email protected]@High
Codec ID : V_MPEGH/ISO/HEVC
Duration : 1 h 51 min
Bit rate : 58.2 Mb/s
Width : 3 840 pixels
Height : 2 160 pixels
Display aspect ratio : 16:9
Frame rate mode : Constant
Frame rate : 23.976 (24000/1001) FPS
Color space : YUV
Chroma subsampling : 4:2:0 (Type 2)
Bit depth : 10 bits
Bits/(Pixel*Frame) : 0.293
Stream size : 45.5 GiB (80%)
Title : Dumbo.2019.2160p.BluRay.REMUX.HEVC.DTS-HD.MA.TrueHD.7.1.Atmos-FGT
Language : English
Default : No
Forced : No
Color range : Limited
Color primaries : BT.2020
Transfer characteristics : PQ
Matrix coefficients : BT.2020 non-constant
Mastering display color primaries : Display P3
Mastering display luminance : min: 0.0050 cd/m2, max: 4000 cd/m2

Audio #1
ID : 2
Format : MLP FBA 16-ch
Format/Info : Meridian Lossless Packing FBA with 16-channel presentation
Commercial name : Dolby TrueHD with Dolby Atmos
Codec ID : A_TRUEHD
Duration : 1 h 51 min
Bit rate mode : Variable
Bit rate : 4 916 kb/s
Maximum bit rate : 7 476 kb/s
Channel(s) : 8 channels
Channel layout : L R C LFE Ls Rs Lb Rb
Sampling rate : 48.0 kHz
Frame rate : 1 200.000 FPS (40 SPF)
Compression mode : Lossless
Stream size : 3.84 GiB (7%)
Title : Dumbo.2019.2160p.BluRay.REMUX.HEVC.DTS-HD.MA.TrueHD.7.1.Atmos-FGT
Language : English
Default : Yes
Forced : No
Number of dynamic objects : 13
Bed channel count : 1 channel
Bed channel configuration : LFE

Audio #2
ID : 3
Format : DTS XLL
Format/Info : Digital Theater Systems
Commercial name : DTS-HD Master Audio
Codec ID : A_DTS
Duration : 1 h 51 min
Bit rate mode : Variable
Bit rate : 4 153 kb/s
Channel(s) : 8 channels
Channel layout : C L R LFE Lb Rb Lss Rss
Sampling rate : 48.0 kHz
Frame rate : 93.750 FPS (512 SPF)
Bit depth : 24 bits
Compression mode : Lossless
Stream size : 3.25 GiB (6%)
Title : Dumbo.2019.2160p.BluRay.REMUX.HEVC.DTS-HD.MA.TrueHD.7.1.Atmos-FGT
Language : English
Default : No
Forced : No

Audio #3
ID : 4
Format : AC-3
Format/Info : Audio Coding 3
Commercial name : Dolby Digital
Codec ID : A_AC3
Duration : 1 h 51 min
Bit rate mode : Constant
Bit rate : 640 kb/s
Channel(s) : 6 channels
Channel layout : L R C LFE Ls Rs
Sampling rate : 48.0 kHz
Frame rate : 31.250 FPS (1536 SPF)
Bit depth : 16 bits
Compression mode : Lossy
Stream size : 512 MiB (1%)
Title : Dumbo.2019.2160p.BluRay.REMUX.HEVC.DTS-HD.MA.TrueHD.7.1.Atmos-FGT
Language : English
Service kind : Complete Main
Default : No
Forced : No

Audio #4
ID : 5
Format : AC-3
Format/Info : Audio Coding 3
Commercial name : Dolby Digital
Codec ID : A_AC3
Duration : 1 h 51 min
Bit rate mode : Constant
Bit rate : 320 kb/s
Channel(s) : 2 channels
Channel layout : L R
Sampling rate : 48.0 kHz
Frame rate : 31.250 FPS (1536 SPF)
Bit depth : 16 bits
Compression mode : Lossy
Stream size : 256 MiB (0%)
Title : Dumbo.2019.2160p.BluRay.REMUX.HEVC.DTS-HD.MA.TrueHD.7.1.Atmos-FGT
Language : English
Service kind : Complete Main
Default : No
Forced : No

Audio #5
ID : 6
Format : E-AC-3
Format/Info : Enhanced AC-3
Commercial name : Dolby Digital Plus
Format profile : Blu-ray Disc
Codec ID : A_EAC3
Duration : 1 h 51 min
Bit rate mode : Constant
Bit rate : 1 024 kb/s
Channel(s) : 8 channels
Channel layout : L R C LFE Ls Rs Lb Rb
Sampling rate : 48.0 kHz
Frame rate : 31.250 FPS (1536 SPF)
Compression mode : Lossy
Stream size : 820 MiB (1%)
Title : Dumbo.2019.2160p.BluRay.REMUX.HEVC.DTS-HD.MA.TrueHD.7.1.Atmos-FGT
Language : French
Service kind : Complete Main
Default : No
Forced : No

Audio #6
ID : 7
Format : AC-3
Format/Info : Audio Coding 3
Commercial name : Dolby Digital
Codec ID : A_AC3
Duration : 1 h 51 min
Bit rate mode : Constant
Bit rate : 576 kb/s
Channel(s) : 6 channels
Channel layout : L R C LFE Ls Rs
Sampling rate : 48.0 kHz
Frame rate : 31.250 FPS (1536 SPF)
Bit depth : 16 bits
Compression mode : Lossy
Stream size : 461 MiB (1%)
Title : Dumbo.2019.2160p.BluRay.REMUX.HEVC.DTS-HD.MA.TrueHD.7.1.Atmos-FGT
Language : French
Service kind : Complete Main
Default : No
Forced : No

Audio #7
ID : 8
Format : E-AC-3
Format/Info : Enhanced AC-3
Commercial name : Dolby Digital Plus
Format profile : Blu-ray Disc
Codec ID : A_EAC3
Duration : 1 h 51 min
Bit rate mode : Constant
Bit rate : 1 024 kb/s
Channel(s) : 8 channels
Channel layout : L R C LFE Ls Rs Lb Rb
Sampling rate : 48.0 kHz
Frame rate : 31.250 FPS (1536 SPF)
Compression mode : Lossy
Stream size : 820 MiB (1%)
Title : Dumbo.2019.2160p.BluRay.REMUX.HEVC.DTS-HD.MA.TrueHD.7.1.Atmos-FGT
Language : Spanish
Service kind : Complete Main
Default : No
Forced : No

Audio #8
ID : 9
Format : AC-3
Format/Info : Audio Coding 3
Commercial name : Dolby Digital
Codec ID : A_AC3
Duration : 1 h 51 min
Bit rate mode : Constant
Bit rate : 576 kb/s
Channel(s) : 6 channels
Channel layout : L R C LFE Ls Rs
Sampling rate : 48.0 kHz
Frame rate : 31.250 FPS (1536 SPF)
Bit depth : 16 bits
Compression mode : Lossy
Stream size : 461 MiB (1%)
Title : Dumbo.2019.2160p.BluRay.REMUX.HEVC.DTS-HD.MA.TrueHD.7.1.Atmos-FGT
Language : Spanish
Service kind : Complete Main
Default : No
Forced : No

Audio #9
ID : 10
Format : E-AC-3
Format/Info : Enhanced AC-3
Commercial name : Dolby Digital Plus
Format profile : Blu-ray Disc
Codec ID : A_EAC3
Duration : 1 h 51 min
Bit rate mode : Constant
Bit rate : 1 024 kb/s
Channel(s) : 8 channels
Channel layout : L R C LFE Ls Rs Lb Rb
Sampling rate : 48.0 kHz
Frame rate : 31.250 FPS (1536 SPF)
Compression mode : Lossy
Stream size : 820 MiB (1%)
Title : Dumbo.2019.2160p.BluRay.REMUX.HEVC.DTS-HD.MA.TrueHD.7.1.Atmos-FGT
Language : Japanese
Service kind : Complete Main
Default : No
Forced : No

Audio #10
ID : 11
Format : AC-3
Format/Info : Audio Coding 3
Commercial name : Dolby Digital
Codec ID : A_AC3
Duration : 1 h 51 min
Bit rate mode : Constant
Bit rate : 576 kb/s
Channel(s) : 6 channels
Channel layout : L R C LFE Ls Rs
Sampling rate : 48.0 kHz
Frame rate : 31.250 FPS (1536 SPF)
Bit depth : 16 bits
Compression mode : Lossy
Stream size : 461 MiB (1%)
Title : Dumbo.2019.2160p.BluRay.REMUX.HEVC.DTS-HD.MA.TrueHD.7.1.Atmos-FGT
Language : Japanese
Service kind : Complete Main
Default : No
Forced : No

Text #1
ID : 12
Format : UTF-8
Codec ID : S_TEXT/UTF8
Codec ID/Info : UTF-8 Plain Text
Duration : 1 h 41 min
Bit rate : 41 b/s
Count of elements : 1210
Stream size : 31.1 KiB (0%)
Title : English-SRT
Language : English
Default : Yes
Forced : No

Text #2
ID : 13
Format : UTF-8
Codec ID : S_TEXT/UTF8
Codec ID/Info : UTF-8 Plain Text
Duration : 1 h 43 min
Bit rate : 51 b/s
Count of elements : 1565
Stream size : 39.3 KiB (0%)
Title : English-SDH-SRT
Language : English
Default : No
Forced : No

Text #3
ID : 14
Format : PGS
Muxing mode : zlib
Codec ID : S_HDMV/PGS
Codec ID/Info : Picture based subtitle format used on BDs/HD-DVDs
Duration : 1 h 43 min
Bit rate : 35.5 kb/s
Count of elements : 3130
Stream size : 26.3 MiB (0%)
Title : English-PGS
Language : English
Default : No
Forced : No

Text #4
ID : 15
Format : PGS
Muxing mode : zlib
Codec ID : S_HDMV/PGS
Codec ID/Info : Picture based subtitle format used on BDs/HD-DVDs
Duration : 1 h 51 min
Bit rate : 26.3 kb/s
Count of elements : 2350
Stream size : 20.9 MiB (0%)
Title : French-PGS
Language : French
Default : No
Forced : No

Text #5
ID : 16
Format : PGS
Muxing mode : zlib
Codec ID : S_HDMV/PGS
Codec ID/Info : Picture based subtitle format used on BDs/HD-DVDs
Duration : 1 h 41 min
Bit rate : 27.7 kb/s
Count of elements : 2320
Stream size : 20.1 MiB (0%)
Title : Spanish-PGS
Language : Spanish
Default : No
Forced : No

Text #6
ID : 17
Format : PGS
Muxing mode : zlib
Codec ID : S_HDMV/PGS
Codec ID/Info : Picture based subtitle format used on BDs/HD-DVDs
Duration : 1 h 51 min
Bit rate : 18.8 kb/s
Count of elements : 2113
Stream size : 15.0 MiB (0%)
Title : Japanese-PGS
Language : Japanese
Default : No
Forced : No

Text #7
ID : 18
Format : PGS
Muxing mode : zlib
Codec ID : S_HDMV/PGS
Codec ID/Info : Picture based subtitle format used on BDs/HD-DVDs
Duration : 1 h 44 min
Bit rate : 345 b/s
Count of elements : 40
Stream size : 264 KiB (0%)
Title : French-FORCED-PGS
Language : French
Default : No
Forced : No

Text #8
ID : 19
Format : PGS
Muxing mode : zlib
Codec ID : S_HDMV/PGS
Codec ID/Info : Picture based subtitle format used on BDs/HD-DVDs
Duration : 1 h 14 min
Bit rate : 586 b/s
Count of elements : 26
Stream size : 319 KiB (0%)
Title : Spanish-FORCED-PGS
Language : Spanish
Default : No
Forced : No

Text #9
ID : 20
Format : PGS
Muxing mode : zlib
Codec ID : S_HDMV/PGS
Codec ID/Info : Picture based subtitle format used on BDs/HD-DVDs
Duration : 32 s 553 ms
Bit rate : 10.4 kb/s
Count of elements : 4
Stream size : 41.4 KiB (0%)
Title : Japanese-FORCED-PGS
Language : Japanese
Default : No
Forced : No

Menu
00:00:00.000 : en:Chapter 01
00:02:49.460 : en:Chapter 02
00:06:46.072 : en:Chapter 03
00:11:23.766 : en:Chapter 04
00:16:33.909 : en:Chapter 05
00:19:20.492 : en:Chapter 06
00:26:08.233 : en:Chapter 07
00:27:45.997 : en:Chapter 08
00:31:07.699 : en:Chapter 09
00:35:09.023 : en:Chapter 10
00:40:44.775 : en:Chapter 11
00:46:44.927 : en:Chapter 12
00:50:23.895 : en:Chapter 13
00:57:15.014 : en:Chapter 14
01:01:53.000 : en:Chapter 15
01:07:18.784 : en:Chapter 16
01:10:11.665 : en:Chapter 17
01:14:47.858 : en:Chapter 18
01:18:04.721 : en:Chapter 19
01:27:55.895 : en:Chapter 20
01:37:09.532 : en:Chapter 21
01:39:40.975 : en:Chapter 22
01:44:02.444 : en:Chapter 23





1 个附件 售价 大小 下载 时间

Dumbo.2019.2160p.BluRay.REMUX.HEVC.DTS-HD.MA.TrueHD.7.1.Atmos-FGT.torrent 0 金币 143.50K 784 次 2月前

#1楼
发帖时间:2019-06-26 18:42:40   |   回复数:3
liyouchai
隐世仙人♂
谢谢楼主分享资源
2月前 #2楼
911degrees
隐世仙人♂
非常感谢,谢谢分享
2月前 #3楼
tanchoohoon
武林盟主
感谢楼主的无私分享
17天前 #4楼
游客组