conanlcg
超级版主

[2009] [欧美] [动作] [4K-原盘] 速度与激情4 Fast.And.Furious.2009.2160p.BluRay.REMUX.HEVC.DTS-X.7.1-FGT 53.42GB

-->

帖子完整标题:速度与激情4 Fast.And.Furious.2009.2160p.BluRay.REMUX.HEVC.DTS-X.7.1-FGT 53.42GB




◎译  名 速度与激情4 / Fast and Furious 4 / 狂野时速4 / 玩命关头4 / 赛车风云
◎片  名 Fast & Furious
◎年  代 2009
◎产  地 美国
◎类  别 动作 / 犯罪
◎语  言 英语
◎上映日期 2009-04-03(美国) / 2009-04-15(中国大陆)
◎IMDb评分 6.6/10 from 242737 users
◎IMDb链接 http://www.imdb.com/title/tt1013752
◎豆瓣评分 7.7/10 from 107749 users
◎豆瓣链接 https://movie.douban.com/subject/2132930/
◎片  长 107 分钟
◎导  演 林诣彬 Justin Lin
◎编  剧 克里斯·摩根 Chris Morgan / 盖瑞·斯科特·汤普森 Gary Scott Thompson
◎主  演 范·迪塞尔 Vin Diesel
      保罗·沃克 Paul Walker
      米歇尔·罗德里格兹 Michelle Rodriguez
      乔丹娜·布鲁斯特 Jordana Brewster
      盖尔·加朵 Gal Gadot
      约翰·奥提兹 John Ortiz
      拉兹·阿隆索 Laz Alonso
      谢伊·惠格姆 Shea Whigham
      莉萨·拉皮拉 Liza Lapira
      姜成镐 Sung Kang
      格雷格·西佩斯 Greg Cipes


◎标  签 动作 | 美国 | 赛车 | 速度与激情 | 犯罪 | 2009 | 飙车 | VinDiesel

◎简  介

  在《速度与激情1》中,为了逃避警察的追捕,多米尼克(范·迪塞尔 Vin Diesel 饰)离开洛杉矶一直流亡于多米尼加共和国。而一车价值140万美金的石油装载车让蛰伏多年的多米尼克再次驾车驰骋起来。而这时,却传来红颜知己莉迪(米歇尔·罗德里格兹 Michelle Rodriguez 饰)惨死的消息。为了查明真相,满腔怒火的多米尼克再次孤身赶回美国。原来,莉迪是为了获得赦免多米尼克的机会,而协助警局抓捕大毒枭坎波斯(约翰·奥提兹 John Ortiz 饰)。不过出于习惯,坎波斯将运送毒品后的莉迪杀人灭口。这样,一边是为女友报仇的多米尼克,一边是历练多年的警探布莱恩(保罗·沃克 Paul Walker 饰),两人再次携手,目标直指大毒枭巴尔加。一场急速复仇就此展开……
《速度与激情4》沿用了第三部东京漂移的华裔导演林诣彬,剧情上跳过第三部,直接承袭第二部,可以说是不折不扣的正统续作。

◎获奖情况

  第18届MTV电影奖(2009)
  MTV电影奖 最佳男演员(提名) 范·迪塞尔

  第11届美国青少年选择奖(2009)
  最佳动作冒险电影(提名)
  最佳动作冒险电影男演员(提名) 保罗·沃克
  最佳动作冒险电影女演员 乔丹娜·布鲁斯特



Video
ID : 1
Format : HEVC
Format/Info : High Efficiency Video Coding
Commercial name : HDR10
Format profile : Main [email protected]@High
Codec ID : V_MPEGH/ISO/HEVC
Duration : 1 h 46 min
Bit rate : 63.3 Mb/s
Width : 3 840 pixels
Height : 2 160 pixels
Display aspect ratio : 16:9
Frame rate mode : Constant
Frame rate : 23.976 (24000/1001) FPS
Color space : YUV
Chroma subsampling : 4:2:0 (Type 2)
Bit depth : 10 bits
Bits/(Pixel*Frame) : 0.318
Stream size : 47.2 GiB (88%)
Title : Fast.And.Furious.2009.2160p.BluRay.REMUX.HEVC.DTS-X.7.1-FGT
Writing library : ATEME Titan File 3.9.0 (4.9.0.0)
Language : English
Default : No
Forced : No
Color range : Limited
Color primaries : BT.2020
Transfer characteristics : PQ
Matrix coefficients : BT.2020 non-constant
Mastering display color primaries : Display P3
Mastering display luminance : min: 0.0050 cd/m2, max: 1000 cd/m2
Maximum Content Light Level : 997 cd/m2
Maximum Frame-Average Light Level : 242 cd/m2

Audio #1
ID : 2
Format : DTS XLL X
Format/Info : Digital Theater Systems
Commercial name : DTS-HD Master Audio
Codec ID : A_DTS
Duration : 1 h 46 min
Bit rate mode : Variable
Bit rate : 4 106 kb/s
Channel(s) : 8 channels
Channel(s)_Original : Object Based
Channel layout : Object Based
Sampling rate : 48.0 kHz
Frame rate : 93.750 FPS (512 SPF)
Bit depth : 24 bits
Stream size : 3.06 GiB (6%)
Title : Fast.And.Furious.2009.2160p.BluRay.REMUX.HEVC.DTS-X.7.1-FGT
Language : English
Default : Yes
Forced : No

Audio #2
ID : 3
Format : DTS
Format/Info : Digital Theater Systems
Codec ID : A_DTS
Duration : 1 h 46 min
Bit rate mode : Constant
Bit rate : 768 kb/s
Channel(s) : 6 channels
Channel layout : C L R Ls Rs LFE
Sampling rate : 48.0 kHz
Frame rate : 93.750 FPS (512 SPF)
Bit depth : 24 bits
Compression mode : Lossy
Stream size : 587 MiB (1%)
Title : Fast.And.Furious.2009.2160p.BluRay.REMUX.HEVC.DTS-X.7.1-FGT
Language : French
Default : No
Forced : No

Audio #3
ID : 4
Format : DTS
Format/Info : Digital Theater Systems
Codec ID : A_DTS
Duration : 1 h 46 min
Bit rate mode : Constant
Bit rate : 768 kb/s
Channel(s) : 6 channels
Channel layout : C L R Ls Rs LFE
Sampling rate : 48.0 kHz
Frame rate : 93.750 FPS (512 SPF)
Bit depth : 24 bits
Compression mode : Lossy
Stream size : 587 MiB (1%)
Title : Fast.And.Furious.2009.2160p.BluRay.REMUX.HEVC.DTS-X.7.1-FGT
Language : Russian
Default : No
Forced : No

Audio #4
ID : 5
Format : DTS
Format/Info : Digital Theater Systems
Codec ID : A_DTS
Duration : 1 h 46 min
Bit rate mode : Constant
Bit rate : 768 kb/s
Channel(s) : 6 channels
Channel layout : C L R Ls Rs LFE
Sampling rate : 48.0 kHz
Frame rate : 93.750 FPS (512 SPF)
Bit depth : 24 bits
Compression mode : Lossy
Stream size : 587 MiB (1%)
Title : Fast.And.Furious.2009.2160p.BluRay.REMUX.HEVC.DTS-X.7.1-FGT
Language : Czech
Default : No
Forced : No

Audio #5
ID : 6
Format : DTS
Format/Info : Digital Theater Systems
Codec ID : A_DTS
Duration : 1 h 46 min
Bit rate mode : Constant
Bit rate : 768 kb/s
Channel(s) : 6 channels
Channel layout : C L R Ls Rs LFE
Sampling rate : 48.0 kHz
Frame rate : 93.750 FPS (512 SPF)
Bit depth : 24 bits
Compression mode : Lossy
Stream size : 587 MiB (1%)
Title : Fast.And.Furious.2009.2160p.BluRay.REMUX.HEVC.DTS-X.7.1-FGT
Language : Hungarian
Default : No
Forced : No

Audio #6
ID : 7
Format : DTS
Format/Info : Digital Theater Systems
Codec ID : A_DTS
Duration : 1 h 46 min
Bit rate mode : Constant
Bit rate : 768 kb/s
Channel(s) : 6 channels
Channel layout : C L R Ls Rs LFE
Sampling rate : 48.0 kHz
Frame rate : 93.750 FPS (512 SPF)
Bit depth : 24 bits
Compression mode : Lossy
Stream size : 587 MiB (1%)
Title : Fast.And.Furious.2009.2160p.BluRay.REMUX.HEVC.DTS-X.7.1-FGT
Language : Polish
Default : No
Forced : No

Audio #7
ID : 8
Format : AC-3
Format/Info : Audio Coding 3
Commercial name : Dolby Digital
Codec ID : A_AC3
Duration : 1 h 46 min
Bit rate mode : Constant
Bit rate : 192 kb/s
Channel(s) : 2 channels
Channel layout : L R
Sampling rate : 48.0 kHz
Frame rate : 31.250 FPS (1536 SPF)
Bit depth : 16 bits
Compression mode : Lossy
Stream size : 147 MiB (0%)
Title : Fast.And.Furious.2009.2160p.BluRay.REMUX.HEVC.DTS-X.7.1-FGT
Language : English
Service kind : Complete Main
Default : No
Forced : No

Text #1
ID : 9
Format : UTF-8
Codec ID : S_TEXT/UTF8
Codec ID/Info : UTF-8 Plain Text
Duration : 1 h 37 min
Bit rate : 35 b/s
Count of elements : 753
Stream size : 25.1 KiB (0%)
Title : English-SRT
Language : English
Default : Yes
Forced : No

Text #2
ID : 10
Format : UTF-8
Codec ID : S_TEXT/UTF8
Codec ID/Info : UTF-8 Plain Text
Duration : 1 h 38 min
Bit rate : 39 b/s
Count of elements : 933
Stream size : 28.1 KiB (0%)
Title : English-SDH-SRT
Language : English
Default : No
Forced : No

Text #3
ID : 11
Format : PGS
Muxing mode : zlib
Codec ID : S_HDMV/PGS
Codec ID/Info : Picture based subtitle format used on BDs/HD-DVDs
Duration : 1 h 38 min
Bit rate : 26.8 kb/s
Count of elements : 1974
Stream size : 18.8 MiB (0%)
Title : English-PGS
Language : English
Default : No
Forced : No

Text #4
ID : 12
Format : PGS
Muxing mode : zlib
Codec ID : S_HDMV/PGS
Codec ID/Info : Picture based subtitle format used on BDs/HD-DVDs
Duration : 1 h 46 min
Bit rate : 17.1 kb/s
Count of elements : 1502
Stream size : 13.0 MiB (0%)
Title : French-PGS
Language : French
Default : No
Forced : No

Text #5
ID : 13
Format : PGS
Muxing mode : zlib
Codec ID : S_HDMV/PGS
Codec ID/Info : Picture based subtitle format used on BDs/HD-DVDs
Duration : 1 h 46 min
Bit rate : 14.8 kb/s
Count of elements : 1386
Stream size : 11.2 MiB (0%)
Title : Dutch-PGS
Language : Dutch
Default : No
Forced : No

Text #6
ID : 14
Format : PGS
Muxing mode : zlib
Codec ID : S_HDMV/PGS
Codec ID/Info : Picture based subtitle format used on BDs/HD-DVDs
Duration : 1 h 46 min
Bit rate : 18.6 kb/s
Count of elements : 1552
Stream size : 14.1 MiB (0%)
Title : Danish-PGS
Language : Danish
Default : No
Forced : No

Text #7
ID : 15
Format : PGS
Muxing mode : zlib
Codec ID : S_HDMV/PGS
Codec ID/Info : Picture based subtitle format used on BDs/HD-DVDs
Duration : 1 h 46 min
Bit rate : 16.0 kb/s
Count of elements : 1408
Stream size : 12.1 MiB (0%)
Title : Finnish-PGS
Language : Finnish
Default : No
Forced : No

Text #8
ID : 16
Format : PGS
Muxing mode : zlib
Codec ID : S_HDMV/PGS
Codec ID/Info : Picture based subtitle format used on BDs/HD-DVDs
Duration : 1 h 46 min
Bit rate : 15.6 kb/s
Count of elements : 1546
Stream size : 11.9 MiB (0%)
Title : Norwegian-PGS
Language : Norwegian
Default : No
Forced : No

Text #9
ID : 17
Format : PGS
Muxing mode : zlib
Codec ID : S_HDMV/PGS
Codec ID/Info : Picture based subtitle format used on BDs/HD-DVDs
Duration : 1 h 46 min
Bit rate : 20.6 kb/s
Count of elements : 1618
Stream size : 15.6 MiB (0%)
Title : Swedish-PGS
Language : Swedish
Default : No
Forced : No

Text #10
ID : 18
Format : PGS
Muxing mode : zlib
Codec ID : S_HDMV/PGS
Codec ID/Info : Picture based subtitle format used on BDs/HD-DVDs
Duration : 1 h 46 min
Bit rate : 18.0 kb/s
Count of elements : 1598
Stream size : 13.7 MiB (0%)
Title : Czech-PGS
Language : Czech
Default : No
Forced : No

Text #11
ID : 19
Format : PGS
Muxing mode : zlib
Codec ID : S_HDMV/PGS
Codec ID/Info : Picture based subtitle format used on BDs/HD-DVDs
Duration : 1 h 46 min
Bit rate : 16.7 kb/s
Count of elements : 1558
Stream size : 12.7 MiB (0%)
Title : Hungarian-PGS
Language : Hungarian
Default : No
Forced : No

Text #12
ID : 20
Format : PGS
Muxing mode : zlib
Codec ID : S_HDMV/PGS
Codec ID/Info : Picture based subtitle format used on BDs/HD-DVDs
Duration : 1 h 46 min
Bit rate : 18.7 kb/s
Count of elements : 1572
Stream size : 14.2 MiB (0%)
Title : Polish-PGS
Language : Polish
Default : No
Forced : No

Text #13
ID : 21
Format : PGS
Muxing mode : zlib
Codec ID : S_HDMV/PGS
Codec ID/Info : Picture based subtitle format used on BDs/HD-DVDs
Duration : 1 h 46 min
Bit rate : 16.5 kb/s
Count of elements : 1622
Stream size : 12.5 MiB (0%)
Title : Chinese-PGS
Language : Chinese
Default : No
Forced : No

Text #14
ID : 22
Format : PGS
Muxing mode : zlib
Codec ID : S_HDMV/PGS
Codec ID/Info : Picture based subtitle format used on BDs/HD-DVDs
Duration : 1 h 46 min
Bit rate : 11.5 kb/s
Count of elements : 1594
Stream size : 8.71 MiB (0%)
Title : Korean-PGS
Language : Korean
Default : No
Forced : No

Text #15
ID : 23
Format : PGS
Muxing mode : zlib
Codec ID : S_HDMV/PGS
Codec ID/Info : Picture based subtitle format used on BDs/HD-DVDs
Duration : 1 h 46 min
Bit rate : 20.0 kb/s
Count of elements : 1622
Stream size : 15.2 MiB (0%)
Title : Greek-PGS
Language : Greek
Default : No
Forced : No

Text #16
ID : 24
Format : PGS
Muxing mode : zlib
Codec ID : S_HDMV/PGS
Codec ID/Info : Picture based subtitle format used on BDs/HD-DVDs
Duration : 1 h 46 min
Bit rate : 18.2 kb/s
Count of elements : 1552
Stream size : 13.8 MiB (0%)
Title : Romanian-PGS
Language : Romanian
Default : No
Forced : No

Text #17
ID : 25
Format : PGS
Muxing mode : zlib
Codec ID : S_HDMV/PGS
Codec ID/Info : Picture based subtitle format used on BDs/HD-DVDs
Duration : 1 h 39 min
Bit rate : 59.2 kb/s
Count of elements : 2676
Stream size : 42.2 MiB (0%)
Title : English-COMMENTARY-PGS
Language : English
Default : No
Forced : No

Text #18
ID : 26
Format : PGS
Muxing mode : zlib
Codec ID : S_HDMV/PGS
Codec ID/Info : Picture based subtitle format used on BDs/HD-DVDs
Duration : 1 h 46 min
Bit rate : 48.8 kb/s
Count of elements : 2698
Stream size : 37.2 MiB (0%)
Title : French-COMMENTARY-PGS
Language : French
Default : No
Forced : No

Text #19
ID : 27
Format : PGS
Muxing mode : zlib
Codec ID : S_HDMV/PGS
Codec ID/Info : Picture based subtitle format used on BDs/HD-DVDs
Duration : 1 h 46 min
Bit rate : 54.4 kb/s
Count of elements : 2698
Stream size : 41.5 MiB (0%)
Title : Russian-COMMENTARY-PGS
Language : Russian
Default : No
Forced : No

Text #20
ID : 28
Format : PGS
Muxing mode : zlib
Codec ID : S_HDMV/PGS
Codec ID/Info : Picture based subtitle format used on BDs/HD-DVDs
Duration : 1 h 46 min
Bit rate : 44.5 kb/s
Count of elements : 2698
Stream size : 34.0 MiB (0%)
Title : Polish-COMMENTARY-PGS
Language : Polish
Default : No
Forced : No

Text #21
ID : 29
Format : PGS
Muxing mode : zlib
Codec ID : S_HDMV/PGS
Codec ID/Info : Picture based subtitle format used on BDs/HD-DVDs
Duration : 1 h 46 min
Bit rate : 54.9 kb/s
Count of elements : 2698
Stream size : 41.9 MiB (0%)
Title : Greek-COMMENTARY-PGS
Language : Greek
Default : No
Forced : No

Text #22
ID : 30
Format : PGS
Muxing mode : zlib
Codec ID : S_HDMV/PGS
Codec ID/Info : Picture based subtitle format used on BDs/HD-DVDs
Duration : 1 h 46 min
Bit rate : 953 b/s
Count of elements : 92
Stream size : 741 KiB (0%)
Title : French-FORCED-PGS
Language : French
Default : No
Forced : No

Text #23
ID : 31
Format : PGS
Muxing mode : zlib
Codec ID : S_HDMV/PGS
Codec ID/Info : Picture based subtitle format used on BDs/HD-DVDs
Duration : 1 h 46 min
Bit rate : 1 227 b/s
Count of elements : 86
Stream size : 955 KiB (0%)
Title : Russian-FORCED-PGS
Language : Russian
Default : No
Forced : No

Text #24
ID : 32
Format : PGS
Muxing mode : zlib
Codec ID : S_HDMV/PGS
Codec ID/Info : Picture based subtitle format used on BDs/HD-DVDs
Duration : 1 h 46 min
Bit rate : 1 191 b/s
Count of elements : 84
Stream size : 926 KiB (0%)
Title : Russian-FORCED-PGS
Language : Russian
Default : No
Forced : No

Text #25
ID : 33
Format : PGS
Muxing mode : zlib
Codec ID : S_HDMV/PGS
Codec ID/Info : Picture based subtitle format used on BDs/HD-DVDs
Duration : 1 h 45 min
Bit rate : 851 b/s
Count of elements : 68
Stream size : 657 KiB (0%)
Title : Czech-FORCED-PGS
Language : Czech
Default : No
Forced : No

Text #26
ID : 34
Format : PGS
Muxing mode : zlib
Codec ID : S_HDMV/PGS
Codec ID/Info : Picture based subtitle format used on BDs/HD-DVDs
Duration : 1 h 46 min
Bit rate : 870 b/s
Count of elements : 78
Stream size : 677 KiB (0%)
Title : Hungarian-FORCED-PGS
Language : Hungarian
Default : No
Forced : No

Menu
00:00:00.000 : en:Chapter 01
00:07:26.279 : en:Chapter 02
00:11:44.745 : en:Chapter 03
00:16:46.630 : en:Chapter 04
00:24:24.129 : en:Chapter 05
00:29:05.452 : en:Chapter 06
00:34:05.209 : en:Chapter 07
00:37:30.831 : en:Chapter 08
00:46:07.389 : en:Chapter 09
00:53:37.255 : en:Chapter 10
00:58:14.866 : en:Chapter 11
01:04:49.218 : en:Chapter 12
01:07:29.920 : en:Chapter 13
01:12:01.692 : en:Chapter 14
01:14:46.565 : en:Chapter 15
01:20:36.206 : en:Chapter 16
01:25:03.306 : en:Chapter 17
01:29:09.427 : en:Chapter 18
01:35:55.040 : en:Chapter 19
01:39:24.750 : en:Chapter 20





1 个附件 售价 大小 下载 时间

Fast.And.Furious.2009.2160p.BluRay.REMUX.HEVC.DTS-X.7.1-FGT.torrent 0 金币 134.11K 679 次 5月前

#1楼
发帖时间:2019-06-26 18:59:10   |   回复数:3
liyouchai
隐世仙人♂
谢谢楼主分享资源
5月前 #2楼
911degrees
隐世仙人♂
非常感谢,谢谢分享
5月前 #3楼
jokingcheung
一代宗师
谢谢分享
5月前 #4楼
游客组