conanlcg
超级版主

[2011] [其他] [剧情] [BD-1080P] 雪镇狂魔 Snowtown.2011.1080p.BluRay.x264-aAF 8.75GB

-->

帖子完整标题:雪镇狂魔 Snowtown.2011.1080p.BluRay.x264-aAF 8.75GB




◎译  名 雪镇狂魔 / The Snowtown Murders / 血教育(台)
◎片  名 Snowtown
◎年  代 2011
◎产  地 澳大利亚
◎类  别 剧情
◎语  言 英语
◎上映日期 2011-05-11(戛纳电影节) / 2011-05-19(澳大利亚)
◎IMDb评分 6.6/10 from 15748 users
◎IMDb链接 http://www.imdb.com/title/tt1680114
◎豆瓣评分 5.9/10 from 549 users
◎豆瓣链接 https://movie.douban.com/subject/6084406/
◎片  长 119分钟
◎导  演 贾斯汀·库泽尔 Justin Kurzel
◎编  剧 贾斯汀·库泽尔 Justin Kurzel / Shaun Grant
◎主  演 Daniel Henshal
      Lucas Pittaway
      Craig Coyne


◎标  签 澳大利亚 | 犯罪 | 2011 | 剧情 | 澳大利亚电影 | 惊悚 | 独立电影 | 青春

◎简  介

  十六岁的杰米(卢卡斯·皮塔威 Lucas Pittaway 饰)和两个弟弟艾利克斯(Marcus Howard 饰)、尼古拉斯(Matthew Howard 饰)一起,同母亲过着相依为命的生活。一家人住在政府专门建造提供给贫民们居住的社区中,他们的左邻右舍,都是和他们一样无家可归的社会下层人士。
杰米终日生活在压抑和痛苦之中,弟弟们少不知事成日里调皮捣蛋,母亲则怨天尤人郁郁寡欢,杰米想要离开家庭,离开这个地方,就在此时,一个名为约翰(丹尼尔·亨绍尔 Daniel Henshall 饰)的男人出现在了杰米的身边,这个高大幽默的男人,满足了杰米对于父亲的一切幻想。随着时间的推移,杰米和约翰的关系越来越亲密起来,他甚至搬到了约翰家里,可渐渐的,约翰露出了不为人知的一面。

◎获奖情况

  第64届戛纳电影节(2011)
  影评人周单元 特别提及 贾斯汀·库泽尔
  费比西奖-特别提及 贾斯汀·库泽尔



Video
ID : 1
Format : AVC
Format/Info : Advanced Video Codec
Format profile : [email protected]
Format settings, CABAC : Yes
Format settings, ReFrames : 4 frames
Codec ID : V_MPEG4/ISO/AVC
Duration : 2 h 0 min
Bit rate : 9 785 kb/s
Width : 1 920 pixels
Height : 1 040 pixels
Display aspect ratio : 1.85:1
Frame rate mode : Constant
Frame rate : 24.000 FPS
Color space : YUV
Chroma subsampling : 4:2:0
Bit depth : 8 bits
Scan type : Progressive
Bits/(Pixel*Frame) : 0.204
Stream size : 8.04 GiB (92%)
Writing library : x264 core 118 r2085 8a62835
Encoding settings : cabac=1 / ref=4 / deblock=1:0:0 / analyse=0x3:0x133 / me=umh / subme=8 / psy=1 / psy_rd=1.00:0.00 / mixed_ref=1 / me_range=16 / chroma_me=1 / trellis=1 / 8x8dct=1 / cqm=0 / deadzone=21,11 / fast_pskip=0 / chroma_qp_offset=-2 / threads=12 / sliced_threads=0 / nr=0 / decimate=1 / interlaced=0 / bluray_compat=0 / constrained_intra=0 / bframes=3 / b_pyramid=2 / b_adapt=1 / b_bias=0 / direct=1 / weightb=1 / open_gop=0 / weightp=2 / keyint=250 / keyint_min=25 / scenecut=40 / intra_refresh=0 / rc_lookahead=40 / rc=2pass / mbtree=1 / bitrate=9785 / ratetol=1.0 / qcomp=0.60 / qpmin=0 / qpmax=69 / qpstep=4 / cplxblur=20.0 / qblur=0.5 / ip_ratio=1.40 / aq=1:1.00
Language : English
Default : Yes
Forced : No

Audio
ID : 2
Format : AC-3
Format/Info : Audio Coding 3
Format settings, Endianness : Big
Codec ID : A_AC3
Duration : 2 h 0 min
Bit rate mode : Constant
Bit rate : 640 kb/s
Channel(s) : 6 channels
Channel positions : Front: L C R, Side: L R, LFE
Sampling rate : 48.0 kHz
Frame rate : 31.250 FPS (1536 spf)
Bit depth : 16 bits
Compression mode : Lossy
Stream size : 550 MiB (6%)
Service kind : Complete Main
Default : Yes
Forced : No





1 个附件 售价 大小 下载 时间

Snowtown.2011.1080p.BluRay.x264-aAF.torrent 0 金币 87.95K 301 次 5月前

#1楼
发帖时间:2019-06-26 20:29:43   |   回复数:2
liyouchai
隐世仙人♂
谢谢楼主分享资源
5月前 #2楼
911degrees
隐世仙人♂
非常感谢,谢谢分享
5月前 #3楼
游客组