conanlcg
超级版主

[2014] [欧美] [剧情] [BD-1080P] 无人引航/无人指导 Rudderless.2014.LIMITED.1080p.BluRay.X264-AMIABLE 7.64GB

-->

帖子完整标题:无人引航/无人指导 Rudderless.2014.LIMITED.1080p.BluRay.X264-AMIABLE 7.64GB




◎译  名 无人引航 / 无人指导 / 生命没有归处(台)
◎片  名 Rudderless
◎年  代 2014
◎产  地 美国
◎类  别 剧情 / 音乐
◎语  言 英语
◎上映日期 2014-10-17(美国)
◎IMDb评分 7.5/10 from 16330 users
◎IMDb链接 http://www.imdb.com/title/tt1798243
◎豆瓣评分 8.2/10 from 13134 users
◎豆瓣链接 https://movie.douban.com/subject/10754780/
◎片  长 105分钟
◎导  演 威廉姆·H·梅西 William H. Macy
◎编  剧 威廉姆·H·梅西 William H. Macy / Jeff Robison / Casey Twenter
◎主  演 比利·克鲁德普 Billy Crudup
      安东·叶利钦 Anton Yelchin
      菲丽西提·霍夫曼 Felicity Huffman
      威廉姆·H·梅西 William H. Macy
      迈尔斯·赫尔泽 Miles Heizer
      赛琳娜·戈麦斯 Selena Gomez
      劳伦斯·菲什伯恩 Laurence Fishburne
      杰米·钟 Jamie Chung


◎标  签 音乐 | 美国 | 剧情 | 亲情 | 温情 | 父亲 | 2014 | 独立电影

◎简  介

  山姆(比利·克鲁德普 Billy Crudup 饰)是一位事业有成的广告公司总裁,一场意外夺取了他的儿子乔什(迈尔斯·赫尔泽 Miles Heizer 饰)的生命,这突如其来的打击让山姆陷入了绝望之中,他放弃了所拥有的一切,躲在自己的帆船里,每日靠酗酒过活。
一次偶然中,山姆意外发现了乔什生前写的几首歌曲,歌曲让山姆仿佛重新回到了父子两人共同为音乐而狂的美好时代。山姆决定让乔什的生命在音乐中延续,他学会了儿子创作的歌曲,于酒吧之中自弹自唱。山姆真挚的歌声吸引了一位名叫昆汀(安东·尤金 Anton Yelchin 饰)的年轻人,两人一拍即合组成了乐队,专门表演乔什所谱的歌曲。

Video
ID : 1
Format : AVC
Format/Info : Advanced Video Codec
Format profile : [email protected]
Format settings, CABAC : Yes
Format settings, ReFrames : 4 frames
Codec ID : V_MPEG4/ISO/AVC
Duration : 1 h 45 min
Bit rate : 8 898 kb/s
Width : 1 920 pixels
Height : 1 040 pixels
Display aspect ratio : 1.85:1
Frame rate mode : Constant
Frame rate : 24.000 FPS
Color space : YUV
Chroma subsampling : 4:2:0
Bit depth : 8 bits
Scan type : Progressive
Bits/(Pixel*Frame) : 0.186
Stream size : 6.53 GiB (85%)
Writing library : x264 core 148 r2579 73ae2d1
Encoding settings : cabac=1 / ref=4 / deblock=1:-3:-3 / analyse=0x3:0x113 / me=umh / subme=8 / psy=1 / psy_rd=1.00:0.00 / mixed_ref=1 / me_range=16 / chroma_me=1 / trellis=1 / 8x8dct=1 / cqm=0 / deadzone=21,11 / fast_pskip=1 / chroma_qp_offset=-2 / threads=12 / lookahead_threads=2 / sliced_threads=0 / nr=0 / decimate=1 / interlaced=0 / bluray_compat=0 / constrained_intra=0 / bframes=3 / b_pyramid=2 / b_adapt=2 / b_bias=0 / direct=3 / weightb=1 / open_gop=0 / weightp=2 / keyint=240 / keyint_min=24 / scenecut=40 / intra_refresh=0 / rc=2pass / mbtree=0 / bitrate=8898 / ratetol=1.0 / qcomp=0.60 / qpmin=0 / qpmax=69 / qpstep=4 / cplxblur=20.0 / qblur=0.5 / ip_ratio=1.40 / pb_ratio=1.30 / aq=1:1.00
Language : English
Default : Yes
Forced : No

Audio
ID : 2
Format : DTS
Format/Info : Digital Theater Systems
Mode : 16
Format settings, Endianness : Big
Codec ID : A_DTS
Duration : 1 h 45 min
Bit rate mode : Constant
Bit rate : 1 509 kb/s
Channel(s) : 6 channels
Channel positions : Front: L C R, Side: L R, LFE
Sampling rate : 48.0 kHz
Frame rate : 93.750 FPS (512 spf)
Bit depth : 24 bits
Compression mode : Lossy
Stream size : 1.11 GiB (15%)
Language : English
Default : Yes
Forced : No

Menu
00:00:00.000 : en:00:00:00.000
00:00:35.792 : en:00:00:35.792
00:14:02.750 : en:00:14:02.750
00:22:59.458 : en:00:22:59.458
00:32:54.417 : en:00:32:54.417
00:38:26.208 : en:00:38:26.208
00:47:47.417 : en:00:47:47.417
01:00:19.833 : en:01:00:19.833
01:10:39.042 : en:01:10:39.042
01:18:57.250 : en:01:18:57.250
01:25:31.208 : en:01:25:31.208
01:34:04.708 : en:01:34:04.708
01:39:21.667 : en:01:39:21.667





1 个附件 售价 大小 下载 时间

Rudderless.2014.LIMITED.1080p.BluRay.X264-AMIABLE.torrent 0 金币 76.96K 469 次 1月前

#1楼
发帖时间:2019-06-26 20:33:35   |   回复数:2
liyouchai
隐世仙人♂
谢谢楼主分享资源
1月前 #2楼
911degrees
隐世仙人♂
非常感谢,谢谢分享
1月前 #3楼
游客组