conanlcg
超级版主

[2010] [欧美] [喜剧] [BD-1080P] 蕾蒙娜和姐姐 Ramona.And.Beezus.2010.1080p.BluRay.x264-Japhson 7.94GB

-->

帖子完整标题:蕾蒙娜和姐姐 Ramona.And.Beezus.2010.1080p.BluRay.x264-Japhson 7.94GB




◎译  名 蕾蒙娜和姐姐 / Ramona / 蕾梦娜和碧祖丝
◎片  名 Ramona and Beezus
◎年  代 2010
◎产  地 美国
◎类  别 喜剧 / 家庭 / 冒险
◎语  言 英语
◎上映日期 2010-07-23(美国)
◎IMDb评分 6.6/10 from 16117 users
◎IMDb链接 http://www.imdb.com/title/tt0493949
◎豆瓣评分 8.1/10 from 18534 users
◎豆瓣链接 https://movie.douban.com/subject/3071517/
◎片  长 103分钟
◎导  演 伊丽莎白·艾伦 Elizabeth Allen
◎编  剧 Laurie Craig / Nick Pustay / 碧弗利·柯利瑞 Beverly Cleary
◎主  演 乔伊·金 Joey King
      赛琳娜·戈麦斯 Selena Gomez
      约翰·考伯特 John Corbett
      布丽姬·穆娜 Bridget Moynahan
      金妮弗·古德温 Ginnifer Goodwin
      乔什·杜哈明 Josh Duhamel
      吴珊卓 Sandra Oh


◎标  签 美国 | 喜剧 | 家庭 | 亲情 | 儿童 | 青春 | 温情 | 2010

◎简  介

  9岁的小女孩蕾蒙娜·昆比(乔伊·金 Joey King 饰)生活在一个幸福美满的家庭里,父亲罗伯特(约翰·考伯特 John Corbett 饰)和善宽容,尽心支撑着这个家;母亲桃乐丝(布丽姬·穆娜 Bridget Moynahan 饰)善良温柔,悉心打理家中的一切;她的姐姐碧祖丝(赛琳娜·戈麦斯 Selena Gomez 饰)美丽聪颖,品学兼优,姐妹俩还有一个牙牙学语的小妹妹。古灵精怪的蕾蒙娜每天尽情玩耍、调皮捣蛋,无忧无虑地享受这份宛如天堂般的快乐时光。然而随着父亲的失业,昆比家的快乐不复存在,人人脸上挂满愁容。蕾蒙娜不愿看到这一切,她决定用自己的奇思妙想为家人们找回久违的快乐……
本片根据作家碧弗利·柯利瑞(Beverly Cleary)的小说改编。

◎获奖情况

  第12届美国青少年选择奖(2010)
  最佳暑期电影女演员(提名) 赛琳娜·戈麦斯



Video
ID : 1
Format : AVC
Format/Info : Advanced Video Codec
Format profile : [email protected]
Format settings : CABAC / 5 Ref Frames
Format settings, CABAC : Yes
Format settings, ReFrames : 5 frames
Codec ID : V_MPEG4/ISO/AVC
Duration : 1 h 43 min
Bit rate : 9 477 kb/s
Width : 1 920 pixels
Height : 800 pixels
Display aspect ratio : 2.40:1
Frame rate mode : Constant
Frame rate : 23.976 FPS
Color space : YUV
Chroma subsampling : 4:2:0
Bit depth : 8 bits
Scan type : Progressive
Bits/(Pixel*Frame) : 0.257
Stream size : 6.69 GiB (84%)
Writing library : x264 core 106 r1732 b20059a
Encoding settings : cabac=1 / ref=5 / deblock=1:-1:-1 / analyse=0x3:0x113 / me=umh / subme=7 / psy=1 / psy_rd=1.00:0.00 / mixed_ref=1 / me_range=16 / chroma_me=1 / trellis=1 / 8x8dct=1 / cqm=0 / deadzone=21,11 / fast_pskip=1 / chroma_qp_offset=-2 / threads=12 / sliced_threads=0 / nr=0 / decimate=1 / interlaced=0 / constrained_intra=0 / bframes=3 / b_pyramid=2 / b_adapt=2 / b_bias=0 / direct=3 / weightb=1 / open_gop=0 / weightp=2 / keyint=250 / keyint_min=23 / scenecut=40 / intra_refresh=0 / rc_lookahead=40 / rc=2pass / mbtree=1 / bitrate=9477 / ratetol=1.0 / qcomp=0.60 / qpmin=10 / qpmax=51 / qpstep=4 / cplxblur=20.0 / qblur=0.5 / vbv_maxrate=50000 / vbv_bufsize=50000 / ip_ratio=1.40 / aq=1:1.00 / nal_hrd=none
Language : English
Default : Yes
Forced : Yes

Audio
ID : 2
Format : DTS
Format/Info : Digital Theater Systems
Codec ID : A_DTS
Duration : 1 h 43 min
Bit rate mode : Constant
Bit rate : 1 509 kb/s
Channel(s) : 6 channels
Channel positions : Front: L C R, Side: L R, LFE
Sampling rate : 48.0 kHz
Frame rate : 93.750 FPS (512 SPF)
Bit depth : 24 bits
Compression mode : Lossy
Stream size : 1.09 GiB (14%)
Language : English
Default : Yes
Forced : Yes





1 个附件 售价 大小 下载 时间

Ramona.And.Beezus.2010.1080p.BluRay.x264-Japhson.torrent 0 金币 79.91K 392 次 2月前

#1楼
发帖时间:2019-06-26 20:35:39   |   回复数:2
liyouchai
隐世仙人♂
谢谢楼主分享资源
2月前 #2楼
911degrees
隐世仙人♂
非常感谢,谢谢分享
2月前 #3楼
游客组