conanlcg
超级版主

[2010] [欧美] [剧情] [BD-1080P] 乡谣情缘 Country.Strong.2010.1080p.BluRay.x264-Japhson 7.93GB

-->

帖子完整标题:乡谣情缘 Country.Strong.2010.1080p.BluRay.x264-Japhson 7.93GB




◎译  名 乡谣情缘 / Love Don't Let Me Down / 乐下星情(台) / 乡村乐之路 / 乡村音乐之恋 / 强韧的心 / 爱人,别让我失望 / 爱的小强 / 爱莫负我
◎片  名 Country Strong
◎年  代 2010
◎产  地 美国
◎类  别 剧情 / 音乐
◎语  言 英语
◎上映日期 2011-01-07
◎IMDb评分 6.3/10 from 16320 users
◎IMDb链接 http://www.imdb.com/title/tt1555064
◎豆瓣评分 7.0/10 from 5374 users
◎豆瓣链接 https://movie.douban.com/subject/4181108/
◎片  长 117分钟
◎导  演 莎娜·费斯特 Shana Feste
◎编  剧 莎娜·费斯特 Shana Feste
◎主  演 格温妮丝·帕特洛 Gwyneth Paltrow
      加内特·赫德兰 Garrett Hedlund
      莉顿·梅斯特 Leighton Meester
      蒂姆·麦格罗 Tim McGraw


◎标  签 音乐 | 美国 | LeightonMeester | GwynethPaltrow | 美国电影 | 爱情 | 2011 | 电影

◎简  介

  凯莉(格温妮斯·帕特洛 Gwyneth Paltrow 饰)是著名的乡村音乐歌后,数月前因一次登台意外导致了流产,而意外正是凯莉本人酗酒过度之后出现精神恍惚所致,因此她被送去了勒戒所,演唱事业也一度停滞。期间她认识了一个才华横溢的乡村音乐作曲家比奥(加内特·赫德兰 Garrett Hedlund 饰),温柔英俊的比奥给了她莫大的安慰。
为了重振演艺事业,凯莉的丈夫兼经纪人詹姆斯(蒂姆·麦格罗 Tim McGraw 饰)开始安排她的复出巡回演唱会,在选择暖场歌手的时候,凯莉推荐了唱作俱佳的比奥,詹姆斯则选中了年轻漂亮的前选美小姐查尔丝(莉顿·梅斯特 Leighton Meester 饰)。然而,在无数媒体和歌迷的强烈关注下,尚未彻底恢复状态的凯莉,在巡回演出中状况连连。每日都要面对镜头的围追堵截,凯莉是否能顶住压力,把握住最后一次的复出机会?她和丈夫的关系是否开始发生改变?在这次巡演中,四个人又该如何面对自我,如何面对彼此之间的关系……

◎获奖情况

  第83届奥斯卡金像奖(2011)
  最佳原创歌曲(提名) 希拉里·林赛 / 特洛伊·贝赫斯 / 汤姆·道格拉斯

  第68届金球奖(2011)
  电影类 最佳原创歌曲(提名) 希拉里·林赛 / 特洛伊·贝赫斯 / Bob DiPiero / 汤姆·道格拉斯

  第13届美国青少年选择奖(2011)
  最佳剧情片女演员(提名) 莉顿·梅斯特



Video
ID : 1
Format : AVC
Format/Info : Advanced Video Codec
Format profile : [email protected]
Format settings, CABAC : Yes
Format settings, ReFrames : 5 frames
Codec ID : V_MPEG4/ISO/AVC
Duration : 1h 57mn
Bit rate : 8 190 Kbps
Width : 1 920 pixels
Height : 800 pixels
Display aspect ratio : 2.40:1
Frame rate mode : Constant
Frame rate : 23.976 (24000/1001) fps
Color space : YUV
Chroma subsampling : 4:2:0
Bit depth : 8 bits
Scan type : Progressive
Bits/(Pixel*Frame) : 0.222
Stream size : 6.54 GiB (82%)
Writing library : x264 core 115 r1937 aa21558
Encoding settings : cabac=1 / ref=5 / deblock=1:-1:-1 / analyse=0x3:0x113 / me=umh / subme=7 / psy=1 / psy_rd=1.00:0.00 / mixed_ref=1 / me_range=16 / chroma_me=1 / trellis=1 / 8x8dct=1 / cqm=0 / deadzone=21,11 / fast_pskip=1 / chroma_qp_offset=-2 / threads=12 / sliced_threads=0 / nr=0 / decimate=1 / interlaced=0 / bluray_compat=0 / constrained_intra=0 / bframes=3 / b_pyramid=2 / b_adapt=2 / b_bias=0 / direct=3 / weightb=1 / open_gop=0 / weightp=2 / keyint=250 / keyint_min=23 / scenecut=40 / intra_refresh=0 / rc_lookahead=40 / rc=2pass / mbtree=1 / bitrate=8190 / ratetol=1.0 / qcomp=0.60 / qpmin=0 / qpmax=69 / qpstep=4 / cplxblur=20.0 / qblur=0.5 / vbv_maxrate=50000 / vbv_bufsize=50000 / nal_hrd=none / ip_ratio=1.40 / aq=1:1.00
Language : English
Default : Yes
Forced : Yes

Audio
ID : 2
Format : DTS
Format/Info : Digital Theater Systems
Mode : 16
Format settings, Endianness : Big
Codec ID : A_DTS
Duration : 1h 57mn
Bit rate mode : Constant
Bit rate : 1 509 Kbps
Channel(s) : 6 channels
Channel positions : Front: L C R, Side: L R, LFE
Sampling rate : 48.0 KHz
Frame rate : 93.750 fps (512 spf)
Bit depth : 24 bits
Compression mode : Lossy
Stream size : 1.23 GiB (16%)
Language : English
Default : Yes
Forced : Yes





1 个附件 售价 大小 下载 时间

Country.Strong.2010.1080p.BluRay.x264-Japhson.torrent 0 金币 79.91K 378 次 5月前

#1楼
发帖时间:2019-06-26 21:03:45   |   回复数:2
liyouchai
隐世仙人♂
谢谢楼主分享资源
5月前 #2楼
911degrees
隐世仙人♂
非常感谢,谢谢分享
5月前 #3楼
游客组