conanlcg
超级版主

[2016] [欧美] [剧情] [BD-1080P] 别犹豫/不必三思 Dont.Think.Twice.2016.LIMITED.1080p.BluRay.x264-SAPHiRE 7.68GB

-->

帖子完整标题:别犹豫/不必三思 Dont.Think.Twice.2016.LIMITED.1080p.BluRay.x264-SAPHiRE 7.68GB




◎译  名 别犹豫 / 不必三思 / 跟着感觉走
◎片  名 Don't Think Twice
◎年  代 2016
◎产  地 美国
◎类  别 剧情 / 喜剧
◎语  言 英语
◎上映日期 2016-03-13(西南偏南电影节) / 2016-07-22(美国)
◎IMDb评分 6.7/10 from 15345 users
◎IMDb链接 http://www.imdb.com/title/tt4972062
◎豆瓣评分 6.7/10 from 1013 users
◎豆瓣链接 https://movie.douban.com/subject/26722222/
◎片  长 92分钟
◎导  演 迈克·比尔比利亚 Mike Birbiglia
◎编  剧 迈克·比尔比利亚 Mike Birbiglia
◎主  演 迈克·比尔比利亚 Mike Birbiglia
      吉莉安·雅各布斯 Gillian Jacobs
      凯特·米库奇 Kate Micucci
      塔米·赛格 Tami Sagher
      科甘-迈克尔·凯 Keegan-Michael Key
      艾米莉· 斯凯格斯 Emily Skeggs
      克里斯·格哈德 Chris Gethard
      布兰登·斯科特·琼斯 Brandon Scott Jones
      苏妮特·玛尼 Sunita Mani
      桑德拉·杰姆斯 Sondra James
      理查德·克兰 Richard Kline
      尼尔·弗莱舍 Neil Fleischer
      艾琳·达克 Erin Darke
      加里·理查德森 Gary Richardson


◎标  签 喜剧 | 美国 | 2016 | 剧情 | 人生 | 独立电影 | 黑色幽默 | 生活

◎简  介

  The friendship between members of a New York improv group is put to the test when their lease is up and one of them lands a TV show.

◎获奖情况

  第22届美国评论家选择电影奖(2017)
  最佳喜剧片(提名)



Video
ID : 1
Format : AVC
Format/Info : Advanced Video Codec
Format profile : [email protected]
Format settings, CABAC : Yes
Format settings, ReFrames : 5 frames
Codec ID : V_MPEG4/ISO/AVC
Duration : 1h 32mn
Bit rate : 10.4 Mbps
Width : 1 920 pixels
Height : 800 pixels
Display aspect ratio : 2.40:1
Frame rate mode : Constant
Frame rate : 23.976 (24000/1001) fps
Color space : YUV
Chroma subsampling : 4:2:0
Bit depth : 8 bits
Scan type : Progressive
Bits/(Pixel*Frame) : 0.282
Stream size : 6.53 GiB (85%)
Writing library : x264 core 148 r2721 72d53ab
Encoding settings : cabac=1 / ref=5 / deblock=1:0:0 / analyse=0x3:0x113 / me=umh / subme=8 / psy=1 / psy_rd=1.00:0.00 / mixed_ref=1 / me_range=16 / chroma_me=1 / trellis=1 / 8x8dct=1 / cqm=0 / deadzone=21,11 / fast_pskip=1 / chroma_qp_offset=-2 / threads=24 / lookahead_threads=4 / sliced_threads=0 / nr=0 / decimate=1 / interlaced=0 / bluray_compat=0 / constrained_intra=0 / bframes=3 / b_pyramid=2 / b_adapt=1 / b_bias=0 / direct=3 / weightb=1 / open_gop=0 / weightp=2 / keyint=240 / keyint_min=24 / scenecut=40 / intra_refresh=0 / rc_lookahead=50 / rc=2pass / mbtree=1 / bitrate=10389 / ratetol=1.0 / qcomp=0.60 / qpmin=0 / qpmax=69 / qpstep=4 / cplxblur=20.0 / qblur=0.5 / ip_ratio=1.40 / aq=1:1.00
Language : English
Default : Yes
Forced : No

Audio
ID : 2
Format : DTS
Format/Info : Digital Theater Systems
Mode : 16
Format settings, Endianness : Big
Codec ID : A_DTS
Duration : 1h 32mn
Bit rate mode : Constant
Bit rate : 1 509 Kbps
Channel(s) : 6 channels
Channel positions : Front: L C R, Side: L R, LFE
Sampling rate : 48.0 KHz
Frame rate : 93.750 fps (512 spf)
Bit depth : 24 bits
Compression mode : Lossy
Stream size : 994 MiB (13%)
Language : English
Default : Yes
Forced : No

Text #1
ID : 3
Format : UTF-8
Codec ID : S_TEXT/UTF8
Codec ID/Info : UTF-8 Plain Text
Title : English regular
Language : English
Default : No
Forced : No

Text #2
ID : 4
Format : UTF-8
Codec ID : S_TEXT/UTF8
Codec ID/Info : UTF-8 Plain Text
Title : English SDH
Language : English
Default : No
Forced : No

Menu
00:00:00.000 : en:00:00:00.000
00:04:06.955 : en:00:04:06.955
00:09:58.723 : en:00:09:58.723
00:15:34.851 : en:00:15:34.851
00:20:48.747 : en:00:20:48.747
00:24:22.086 : en:00:24:22.086
00:28:00.304 : en:00:28:00.304
00:32:38.832 : en:00:32:38.832
00:36:03.036 : en:00:36:03.036
00:39:41.921 : en:00:39:41.921
00:44:56.694 : en:00:44:56.694
00:49:35.973 : en:00:49:35.973
00:54:45.449 : en:00:54:45.449
00:58:03.980 : en:00:58:03.980
01:01:57.339 : en:01:01:57.339
01:07:11.486 : en:01:07:11.486
01:11:54.727 : en:01:11:54.727
01:17:09.708 : en:01:17:09.708
01:21:26.882 : en:01:21:26.882
01:26:18.382 : en:01:26:18.382





1 个附件 售价 大小 下载 时间

Dont.Think.Twice.2016.LIMITED.1080p.BluRay.x264-SAPHiRE.torrent 0 金币 77.69K 399 次 1月前

#1楼
发帖时间:2019-06-27 21:01:28   |   回复数:2
liyouchai
隐世仙人♂
谢谢楼主分享资源
1月前 #2楼
911degrees
隐世仙人♂
非常感谢,谢谢分享
1月前 #3楼
游客组