conanlcg
超级版主

[更 早] [香港] [动作] [BD-1080P] 江湖龍虎鬥 Flaming.Brothers.1987.CHINESE.1080p.BluRay.x264.DTS-FGT 9.25GB

-->

帖子完整标题:江湖龍虎鬥 Flaming.Brothers.1987.CHINESE.1080p.BluRay.x264.DTS-FGT 9.25GB




◎译  名 江湖龙虎斗 / Flaming Brothers
◎片  名 江湖龍虎鬥
◎年  代 1987
◎产  地 香港
◎类  别 动作 / 犯罪
◎语  言 粤语
◎上映日期 1987-07-30
◎IMDb评分 6.4/10 from 486 users
◎IMDb链接 http://www.imdb.com/title/tt0093305
◎豆瓣评分 6.7/10 from 2635 users
◎豆瓣链接 https://movie.douban.com/subject/1306209/
◎片  长 99 分钟
◎导  演 张同祖 Tongzu Zhang
◎编  剧 王家卫 Kar Wai Wong
◎主  演 周润发
      邓光荣 Alan Tang
      谢贤
      徐少强
      甄妮
      夏文汐
      陈欣健 Philip Chan


◎标  签 周润发 | 香港 | 香港电影 | 动作 | 王家卫 | 邓光荣 | 1987 | 夏文汐

◎简  介

  阿伦(邓光荣 饰)和阿天(周润发 饰)自小在澳门街头流浪长大,两人相依为命,情比兄弟,立志要闯出一番天地。就在二人终于出人头地,风生水起的时候,阿伦却因杀了黑帮老大高老四(谢贤 饰)的手下而在泰国遭到追杀。与此同时,阿天在儿时经常玩耍的修女院旧址,遇到了童年的玩伴卡希(夏文汐 饰),两人互生爱慕,订下终身。卡希希望阿天在结婚后转做正行,二人一起离开澳门,去香港生活。就在阿天准备和阿伦告别之时,高老四对阿伦的追杀愈演愈烈。大难当前,兄弟二人最终又会何去何从……

Video
ID : 1
Format : AVC
Format/Info : Advanced Video Codec
Format profile : [email protected]
Format settings : CABAC / 4 Ref Frames
Format settings, CABAC : Yes
Format settings, ReFrames : 4 frames
Codec ID : V_MPEG4/ISO/AVC
Duration : 1 h 41 min
Bit rate : 11.5 Mb/s
Width : 1 920 pixels
Height : 1 038 pixels
Display aspect ratio : 1.85:1
Frame rate mode : Constant
Frame rate : 23.976 (24000/1001) FPS
Color space : YUV
Chroma subsampling : 4:2:0
Bit depth : 8 bits
Scan type : Progressive
Bits/(Pixel*Frame) : 0.241
Stream size : 8.18 GiB (88%)
Title : Flaming.Brothers.1987.CHINESE.1080p.BluRay.x264.DTS-FGT
Writing library : x264 core 148 r2795M aaa9aa8
Encoding settings : cabac=1 / ref=4 / deblock=1:-2:-2 / analyse=0x3:0x113 / me=umh / subme=9 / psy=1 / psy_rd=1.00:0.15 / mixed_ref=1 / me_range=16 / chroma_me=1 / trellis=2 / 8x8dct=1 / cqm=0 / deadzone=21,11 / fast_pskip=1 / chroma_qp_offset=-3 / threads=24 / lookahead_threads=3 / sliced_threads=0 / nr=0 / decimate=1 / interlaced=0 / bluray_compat=0 / constrained_intra=0 / bframes=3 / b_pyramid=2 / b_adapt=1 / b_bias=0 / direct=3 / weightb=1 / open_gop=0 / weightp=2 / keyint=250 / keyint_min=25 / scenecut=40 / intra_refresh=0 / rc_lookahead=50 / rc=2pass / mbtree=1 / bitrate=11500 / ratetol=1.0 / qcomp=0.60 / qpmin=0 / qpmax=69 / qpstep=4 / cplxblur=20.0 / qblur=0.5 / vbv_maxrate=31250 / vbv_bufsize=31250 / nal_hrd=none / filler=0 / ip_ratio=1.40 / aq=1:1.00
Language : Chinese
Default : Yes
Forced : No

Audio
ID : 2
Format : DTS
Format/Info : Digital Theater Systems
Codec ID : A_DTS
Duration : 1 h 41 min
Bit rate mode : Constant
Bit rate : 1 509 kb/s
Channel(s) : 6 channels
Channel layout : C L R Ls Rs LFE
Sampling rate : 48.0 kHz
Frame rate : 93.750 FPS (512 SPF)
Bit depth : 16 bits
Compression mode : Lossy
Stream size : 1.07 GiB (12%)
Title : Flaming.Brothers.1987.CHINESE.1080p.BluRay.x264.DTS-FGT
Language : Chinese
Default : Yes
Forced : No

Text
ID : 3
Format : UTF-8
Codec ID : S_TEXT/UTF8
Codec ID/Info : UTF-8 Plain Text
Duration : 1 h 39 min
Bit rate : 48 b/s
Count of elements : 1247
Stream size : 35.4 KiB (0%)
Language : English
Default : Yes
Forced : No





1 个附件 售价 大小 下载 时间

Flaming.Brothers.1987.CHINESE.1080p.BluRay.x264.DTS-FGT.torrent 0 金币 46.80K 2583 次 1月前

#1楼
发帖时间:2019-06-27 23:55:48   |   回复数:6
PCHUN
武林高手
Thanks for sharing
1月前 #2楼
jokingcheung
一代宗师
谢谢分享
1月前 #3楼
liyouchai
隐世仙人♂
谢谢楼主分享资源
1月前 #4楼
911degrees
隐世仙人♂
非常感谢,谢谢分享
1月前 #5楼
tanchoohoon
武林盟主
感谢楼主的无私分享
1月前 #6楼
linbr
武林高手
多谢楼主分享
1月前 #7楼
游客组