conanlcg
超级版主

[2016] [其他] [剧情] [BD-1080P] 梦中人 Sweet.Dreams.2016.1080p.BluRay.x264-USURY 8.76GB

-->

帖子完整标题:梦中人 Sweet.Dreams.2016.1080p.BluRay.x264-USURY 8.76GB




◎译  名 梦中人 / Sweet Dreams / 孤独梦里人 / 甜美的梦 / 甜蜜假象(港) / 祝你有个甜美的梦(台) / 美梦无言
◎片  名 Fai bei sogni
◎年  代 2016
◎产  地 意大利 / 法国
◎类  别 剧情
◎语  言 意大利语 / 法语
◎上映日期 2016-05-12(戛纳电影节) / 2016-11-10(意大利) / 2016-12-28(法国)
◎IMDb评分 6.5/10 from 1271 users
◎IMDb链接 http://www.imdb.com/title/tt4746506
◎豆瓣评分 6.6/10 from 571 users
◎豆瓣链接 https://movie.douban.com/subject/26412188/
◎片  长 131分钟
◎导  演 马可·贝罗奇奥 Marco Bellocchio
◎编  剧 马可·贝罗奇奥 Marco Bellocchio / 瓦利亚·桑泰拉 Valia Santella / 爱德华多·阿比那蒂 Edoardo Albinati / 马西莫·格拉梅利尼 Massimo Gramellini
◎主  演 贝热尼丝·贝乔 Bérénice Bejo
      瓦莱里奥·马斯坦德雷亚 Valerio Mastandrea
      法布里齐奥·吉福尼 Fabrizio Gifuni
      圭多·卡普里诺 Guido Caprino
      芭芭拉·朗奇 Barbara Ronchi
      达里奥·达尔·佩洛 Dario Dal Pero
      尼科尔·卡布拉斯 Nicolò Cabras
      埃马纽埃尔·德沃 Emmanuelle Devos
      马里奥·阿坎帕 Mario Acampa
      皮耶尔·乔治·贝洛奇奥 Pier Giorgio Bellocchio
      朱利奥·布洛吉 Giulio Brogi
      罗伯托·德·弗朗西斯科 Roberto De Francesco
      皮埃拉·迪格利·埃斯波斯蒂 Piera Degli Esposti
      迪伦·费拉里奥 Dylan Ferrario
      罗贝托·埃利茨卡 Roberto Herlitzka
      米莱姆·里昂 Miriam Leone
      琳达·梅瑟克林格 Linda Messerklinger
      福斯托·鲁索·阿莱西 Fausto Russo Alesi


◎标  签 意大利 | 2016 | 剧情 | 家庭 | 法国 | 心理 | 亲情 | 成长

◎简  介

  贝罗奇奥是意大利国宝级导演之一,他不但深受威尼斯的追捧,同时也受到戛纳的厚爱。他曾五次入围威尼斯电影节主竞赛,并获得终身成就奖;同时,他又曾入围过六次戛纳主竞赛单元。去年,导演极其私人化的影片《吾血之血》在威尼斯收获无数好评。今年这部片,将围绕一个隐藏在信封内长达四十年的秘密所展开。本片为今年导演双周开幕片。

Video
ID : 1
Format : AVC
Format/Info : Advanced Video Codec
Format profile : [email protected]
Format settings : CABAC / 5 Ref Frames
Format settings, CABAC : Yes
Format settings, ReFrames : 5 frames
Codec ID : V_MPEG4/ISO/AVC
Duration : 2 h 11 min
Bit rate : 8 025 kb/s
Width : 1 920 pixels
Height : 808 pixels
Display aspect ratio : 2.40:1
Frame rate mode : Constant
Frame rate : 23.976 (24000/1001) FPS
Color space : YUV
Chroma subsampling : 4:2:0
Bit depth : 8 bits
Scan type : Progressive
Bits/(Pixel*Frame) : 0.216
Stream size : 7.36 GiB (84%)
Writing library : x264 core 157 r2969 d4099dd
Encoding settings : cabac=1 / ref=5 / deblock=1:-3:-3 / analyse=0x3:0x133 / me=umh / subme=9 / psy=1 / psy_rd=1.00:0.00 / mixed_ref=1 / me_range=16 / chroma_me=1 / trellis=2 / 8x8dct=1 / cqm=0 / deadzone=21,11 / fast_pskip=0 / chroma_qp_offset=-2 / threads=18 / lookahead_threads=1 / sliced_threads=0 / nr=0 / decimate=1 / interlaced=0 / bluray_compat=0 / constrained_intra=0 / bframes=3 / b_pyramid=2 / b_adapt=1 / b_bias=0 / direct=3 / weightb=1 / open_gop=0 / weightp=2 / keyint=240 / keyint_min=24 / scenecut=40 / intra_refresh=0 / rc_lookahead=50 / rc=2pass / mbtree=1 / bitrate=8025 / ratetol=1.0 / qcomp=0.60 / qpmin=0 / qpmax=69 / qpstep=4 / cplxblur=20.0 / qblur=0.5 / ip_ratio=1.40 / aq=1:1.00
Language : English
Default : Yes
Forced : No

Audio
ID : 2
Format : DTS
Format/Info : Digital Theater Systems
Codec ID : A_DTS
Duration : 2 h 11 min
Bit rate mode : Constant
Bit rate : 1 509 kb/s
Channel(s) : 6 channels
Channel layout : C L R Ls Rs LFE
Sampling rate : 48.0 kHz
Frame rate : 93.750 FPS (512 SPF)
Bit depth : 24 bits
Compression mode : Lossy
Stream size : 1.38 GiB (16%)
Language : Italian
Default : Yes
Forced : No

Text
ID : 3
Format : UTF-8
Codec ID : S_TEXT/UTF8
Codec ID/Info : UTF-8 Plain Text
Duration : 2 h 2 min
Bit rate : 35 b/s
Count of elements : 1014
Stream size : 32.4 KiB (0%)
Title : English
Language : English
Default : Yes
Forced : Yes

Menu
00:00:00.000 : en:00:00:00.000
00:05:32.999 : en:00:05:32.999
00:10:31.464 : en:00:10:31.464
00:20:48.038 : en:00:20:48.038
00:36:06.623 : en:00:36:06.623
00:43:06.459 : en:00:43:06.459
00:55:59.606 : en:00:55:59.606
01:03:24.801 : en:01:03:24.801
01:22:02.543 : en:01:22:02.543
01:30:42.312 : en:01:30:42.312
01:40:29.982 : en:01:40:29.982
01:49:47.831 : en:01:49:47.831





1 个附件 售价 大小 下载 时间

Sweet.Dreams.2016.1080p.BluRay.x264-USURY.torrent 0 金币 44.64K 371 次 1月前

#1楼
发帖时间:2019-06-29 05:31:26   |   回复数:2
911degrees
隐世仙人♂
非常感谢,谢谢分享
1月前 #2楼
liyouchai
隐世仙人♂
谢谢楼主分享资源
1月前 #3楼
游客组