conanlcg
超级版主

[2011] [其他] [其他] [BD-1080P] 幸存日 The.Day.2011.1080p.BluRay.x264-GECKOS 5.46GB

-->

帖子完整标题:幸存日 The.Day.2011.1080p.BluRay.x264-GECKOS 5.46GB




◎译  名 幸存日
◎片  名 The Day
◎年  代 2011
◎产  地 加拿大
◎类  别 悬疑 / 惊悚
◎语  言 英语
◎上映日期 2012-08-17(美国)
◎IMDb评分 5.2/10 from 11750 users
◎IMDb链接 http://www.imdb.com/title/tt1756799
◎豆瓣评分 4.8/10 from 990 users
◎豆瓣链接 https://movie.douban.com/subject/5415664/
◎片  长 87分钟
◎导  演 Douglas Aarniokoski
◎编  剧 Luke Passmore
◎主  演 Shannyn Sossamon


◎标  签 灾难 | 加拿大 | 末世 | 惊悚 | 科幻 | 废土 | 灾难片 | 末日

◎简  介

  在后启示录的未来时代,人类生存堪危。五个幸存者游荡在荒凉的乡间,饥饿、迷茫。而随着食物和武器的减少,他们曾经的庇护所变成了沙场,他们或者战斗或者死亡。

随着末世来临的危机终于彻底地爆发,一场违背了人性的狂野战争迅速地吞噬了整个世界,这里有5位幸存者,虽然他们不得不面对的是失去的痛苦,却也只能疲于奔命的一路逃亡了,因为他们受到的是异常残酷且无情的追捕,子弹从耳边呼啸而过,到处弥漫着战火的硝烟……现在,他们只剩下最后24个小时了,他们没有选择,要么战斗,要么死亡。 这几位幸存者用一切他们所能找到的全部武器来武装自己,有散弹枪、斧子和弯刀,一路穿行在乡野间的小路上,小心翼翼地向前推进着,周围全部都是遭受了可怕的重创和破坏的满目疮痍——他们正在寻求的是一处绝对安全的避难所,而他们身处的是一个经过了世界末日的洗礼的未来,所到之处,亲眼目睹的皆是一些惨不忍睹的可怕景象。战争所带来的不仅仅是人性的泯灭,还摧毁了地球上的大部分人类和文明。作为这个世界最后的坚守,他们也意识到,如何存活下去,是他们需要不断努力的终极目标。做好了随时丧命的准备,他们既饥饿又疲惫,最终他们决定在一座废弃的农舍里稍作停留,好好休整一下。但是,当他们去四周寻找食物和其他必须的补给与资源的时候,却在无意中触动了陷阱里的警报器,向隐藏在暗处的残酷的掠夺者发出了信号,已经准备好了迎接他们的致命袭击……随着几位幸存者被逼至弹尽粮绝的死胡同,他们也只能团结一致,发出最后的抵抗,为了他们的生命拼死一战。


Video
ID : 1
Format : AVC
Format/Info : Advanced Video Codec
Format profile : [email protected]
Format settings, CABAC : Yes
Format settings, ReFrames : 4 frames
Codec ID : V_MPEG4/ISO/AVC
Duration : 1 h 24 min
Bit rate : 8 634 kb/s
Width : 1 920 pixels
Height : 1 040 pixels
Display aspect ratio : 1.85:1
Frame rate mode : Constant
Frame rate : 23.976 FPS
Color space : YUV
Chroma subsampling : 4:2:0
Bit depth : 8 bits
Scan type : Progressive
Bits/(Pixel*Frame) : 0.180
Stream size : 4.98 GiB (91%)
Writing library : x264 core 129 r2230 1cffe9f
Encoding settings : cabac=1 / ref=4 / deblock=1:0:0 / analyse=0x3:0x133 / me=umh / subme=7 / psy=1 / psy_rd=1.00:0.00 / mixed_ref=1 / me_range=16 / chroma_me=1 / trellis=1 / 8x8dct=1 / cqm=0 / deadzone=21,11 / fast_pskip=0 / chroma_qp_offset=-2 / threads=12 / lookahead_threads=2 / sliced_threads=0 / nr=0 / decimate=1 / interlaced=0 / bluray_compat=0 / constrained_intra=0 / bframes=3 / b_pyramid=2 / b_adapt=1 / b_bias=0 / direct=1 / weightb=1 / open_gop=0 / weightp=2 / keyint=250 / keyint_min=23 / scenecut=40 / intra_refresh=0 / rc_lookahead=40 / rc=2pass / mbtree=1 / bitrate=8634 / ratetol=1.0 / qcomp=0.60 / qpmin=0 / qpmax=69 / qpstep=4 / cplxblur=20.0 / qblur=0.5 / ip_ratio=1.40 / aq=1:1.00
Language : English
Default : Yes
Forced : No

Audio
ID : 2
Format : AC-3
Format/Info : Audio Coding 3
Format settings, Endianness : Big
Codec ID : A_AC3
Duration : 1 h 24 min
Bit rate mode : Constant
Bit rate : 640 kb/s
Channel(s) : 6 channels
Channel positions : Front: L C R, Side: L R, LFE
Sampling rate : 48.0 kHz
Frame rate : 31.250 FPS (1536 spf)
Bit depth : 16 bits
Compression mode : Lossy
Stream size : 386 MiB (7%)
Language : English
Service kind : Complete Main
Default : Yes
Forced : No

Text
ID : 3
Format : UTF-8
Codec ID : S_TEXT/UTF8
Codec ID/Info : UTF-8 Plain Text
Language : English
Default : No
Forced : No

Menu
00:00:00.000 : en:00:00:00.000
00:04:51.625 : en:00:04:51.625
00:14:40.004 : en:00:14:40.004
00:22:22.758 : en:00:22:22.758
00:30:02.175 : en:00:30:02.175
00:34:40.620 : en:00:34:40.620
00:49:01.105 : en:00:49:01.105
00:56:25.299 : en:00:56:25.299
01:05:44.190 : en:01:05:44.190
01:12:45.945 : en:01:12:45.945
01:14:48.567 : en:01:14:48.567
01:20:42.838 : en:01:20:42.838





1 个附件 售价 大小 下载 时间

The.Day.2011.1080p.BluRay.x264-GECKOS.torrent 0 金币 55.10K 252 次 5月前

#1楼
发帖时间:2019-06-30 12:01:15   |   回复数:3
blue23
隐世仙人♂
感谢楼主分享
5月前 #2楼
liyouchai
隐世仙人♂
谢谢楼主分享资源
5月前 #3楼
911degrees
隐世仙人♂
非常感谢,谢谢分享
5月前 #4楼
游客组